<?xml version="1.0" standalone="no"?>
<!DOCTYPE svg PUBLIC "-//W3C//DTD SVG 1.1//EN" "http://www.w3.org/Graphics/SVG/1.1/DTD/svg11.dtd">
<svg xmlns="http://www.w3.org/2000/svg">
<metadata>Copyright (C) 2019 by original authors @ fontello.com</metadata>
<defs>
<font id="porto" horiz-adv-x="1000" >
<font-face font-family="porto" font-weight="400" font-stretch="normal" units-per-em="1000" ascent="850" descent="-150" />
<missing-glyph horiz-adv-x="1000" />
<glyph glyph-name="spin1" unicode="&#xe800;" d="M496 844c-176 0-331-90-421-226-18-27-33-55-46-85-12-29-21-60-28-92 0 0 0-1 0-1v0 0c0-1 0-2 0-2 0-7 5-12 11-12h101c5 0 10 4 11 9 29 113 109 206 214 253 20 10 41 17 63 23 31 7 62 11 95 11v0 0 0c25 0 50-2 74-7 5-1 10-2 14-3 6-1 10-3 14-4v0c5-1 11 1 13 6l51 87c0 0 1 1 1 2 2 6-1 13-7 15-22 7-43 13-65 17-5 1-9 1-13 2-27 5-54 7-82 7v0 0z m327-114c-5 0-9-2-11-6l-50-87c-3-4-2-10 2-14 29-29 54-63 73-101 4-7 7-14 11-22 19-46 30-97 30-151v0 0c0-77-22-149-62-209-7-11-15-23-24-33-9-11-18-21-28-31v0 0 0c-4-4-5-10-2-14l50-87c0-1 1-2 2-3 4-5 11-5 16-1 58 52 104 117 134 190 6 15 11 29 15 44 14 46 21 94 21 144 0 108-34 209-92 291-11 16-23 31-37 46-13 14-26 28-41 41v0c-1 1-1 1-2 1-2 1-4 2-5 2z m-811-468v0c-1 0-2 0-3 0-6-1-10-8-9-14 34-166 149-302 302-366 30-12 61-21 93-28 32-6 66-10 100-10v0 0c40 0 79 5 117 14 7 1 14 3 22 5 6 2 13 5 20 7 1 0 2 1 3 1 6 3 8 10 4 16l-50 87c-3 5-8 7-13 6-14-4-28-7-42-9-3-1-6-1-8-2-18-2-35-3-53-3v0 0c-128 0-242 63-311 160-1 0-1 0-1 0-13 19-25 40-35 61s-18 43-24 65c-1 6-6 10-11 10h-101z" horiz-adv-x="1000" />

<glyph glyph-name="spin2" unicode="&#xe801;" d="M46 138v0c0 0-1 0-1 0-8 18-15 37-21 55-6 19-11 38-15 58-19 99-8 203 35 298 3 6 10 8 15 5 1 0 2 0 2-1v0l80-59c5-3 6-9 4-14-5-12-9-25-12-37-4-13-7-26-9-40-11-67-3-137 23-201 2-5 0-10-4-13v0l-80-56c-5-4-12-2-16 3-1 0-1 1-1 2v0z m120 574v0c0 1 0 1 0 1 15 13 30 25 46 37 16 11 33 22 51 31 89 50 192 72 297 60 6-1 10-6 10-13 0-1-1-1-1-2v0l-31-94c-2-5-8-8-13-7-13 0-27 0-40 0-14-1-27-2-40-4-68-11-133-40-186-84-4-3-10-3-14 0v0l-79 58c-5 3-6 11-2 16 0 0 1 1 2 1v0z m588 65v0c0 0 1 0 1 0 17-10 34-21 50-32 16-12 31-25 46-38 74-69 127-160 148-262 2-6-2-12-9-13-1 0-1 0-2 0v0l-100 1c-5 0-10 4-11 9-3 13-8 26-12 38-5 12-10 25-17 36-31 61-78 113-137 150-5 3-6 8-5 13v0l31 92c2 6 9 9 15 7 1 0 2-1 2-1v0z m244-535v0c0 0 0 0 0 0-4-20-9-39-15-57-7-19-14-37-22-55-44-92-114-170-205-221-6-3-13-1-16 4 0 1-1 2-1 2v0l-30 94c-2 6 1 12 6 14 11 7 22 15 32 23 11 9 21 18 30 27 49 48 84 109 101 176 2 5 6 8 11 8v0l98-1c6 0 11-5 11-11 0-1 0-2 0-3v0z m-438-395v0c0 0 0 0 0 0-20-2-40-3-60-3s-40 1-59 4c-102 12-198 54-276 125-5 4-5 11 0 16 0 0 1 1 1 1v0l81 58c5 3 12 2 16-2 10-8 20-16 32-23 11-7 22-14 34-20 62-31 131-45 200-41 6 0 10-3 12-8v0l29-92c2-6-1-12-7-14-1-1-2-1-3-1v0z" horiz-adv-x="1000" />

<glyph glyph-name="spin3" unicode="&#xe802;" d="M494 844c-266 0-483-210-494-472-1-19 13-20 13-20h84c16 0 19 10 19 18 10 199 176 358 378 358 107 0 205-45 273-118l-58-57c-11-12-11-27 5-31l247-50c21-5 46 11 37 44l-58 227c-2 9-16 22-29 13l-65-60c-89 91-214 148-352 148z m409-508c-16 0-19-10-19-18-10-199-176-358-377-358-108 0-205 45-274 118l59 57c10 12 10 27-5 31l-248 50c-21 5-46-11-37-44l58-227c2-9 16-22 30-13l64 60c89-91 214-148 353-148 265 0 482 210 493 473 1 18-13 19-13 19h-84z" horiz-adv-x="1000" />

<glyph glyph-name="spin4" unicode="&#xe803;" d="M498 844c-114 0-228-39-320-116v0c173 140 428 130 588-31 134-134 164-332 89-495-10-29-5-50 12-68 21-20 61-23 84 0 3 3 12 15 15 24 71 180 33 393-112 539-99 98-228 147-356 147z m-409-274c-14 0-29-5-39-16-3-3-13-15-15-24-71-180-34-393 112-539 185-185 479-195 676-31v0c-173-140-428-130-589 31-134 134-163 333-89 495 11 29 6 50-12 68-11 11-27 17-44 16z" horiz-adv-x="1001" />

<glyph glyph-name="spin5" unicode="&#xe804;" d="M462 844c-6 0-11-5-11-11v-183c0-6 5-11 11-11h69c1 0 1 0 1 0 7 0 12 5 12 11v183c0 6-5 11-12 11h-69c0 0 0 0-1 0z m250-47c-4 1-8-2-10-5l-91-158c-4-6-2-13 4-16l60-34c0-1 0-1 0-1 6-3 13-1 16 4l91 158c3 6 2 13-4 16l-61 35c-1 1-3 1-5 1z m-428-2c-2 0-4-1-6-2l-61-35c-5-3-7-10-4-16l91-157c0 0 0 0 0 0 3-6 10-8 16-5l61 35c5 4 7 11 4 16l-91 157c0 1 0 1 0 1-2 4-6 6-10 6z m620-163c-2 0-4 0-6-1l-157-91c0 0 0 0 0 0-6-3-8-10-5-16l35-61c4-5 11-7 16-4l157 91c1 0 1 0 1 0 6 3 7 11 4 16l-35 61c-2 4-6 6-10 5z m-810-4c-5 0-9-2-11-6l-35-61c-3-5-1-12 4-15l158-91c6-4 13-2 16 4l35 60c0 0 0 0 0 0 3 6 1 13-4 16l-158 91c-2 1-4 2-5 2z m712-235v0c-6 0-11-5-11-11v-69c0-1 0-1 0-1 0-7 5-12 11-12h183c6 0 11 5 11 12v69c0 0 0 0 0 1 0 6-5 11-11 11h-183z m-794-5v0c-7 0-12-5-12-12v-69c0 0 0 0 0-1 0-6 5-11 12-11h182c6 0 11 5 11 11v69c0 1 0 1 0 1 0 7-5 12-11 12h-182z m772-153c-4 0-8-2-10-6l-34-60c-1 0-1 0-1 0-3-6-1-13 4-16l158-91c6-3 13-1 16 4l35 61c3 5 1 12-4 15l-158 92c-2 1-4 1-6 1z m-566-5c-1 0-3 0-5-1l-157-91c0 0-1 0-1 0-5-3-7-10-4-16l35-61c3-5 10-7 16-4l157 91c0 0 0 0 0 0 6 3 8 10 5 16l-35 61c-3 3-7 6-11 5z m468-121c-2 0-4 0-6-1l-61-35c-5-4-7-11-4-16l91-157c0-1 0-1 0-1 3-6 11-7 16-4l61 35c5 3 7 10 4 16l-91 157c0 0 0 0 0 0-2 4-6 6-10 6z m-367-2c-4 0-8-2-10-6l-91-158c-3-6-1-13 4-16l61-35c5-3 12-1 15 4l92 158c3 6 1 13-5 16l-60 35c0 0 0 0 0 0-2 1-4 1-6 2z m149-58c-7 0-12-5-12-11v-183c0-6 5-11 12-11h69c0 0 0 0 1 0 6 0 11 5 11 11v183c0 6-5 11-11 11h-69c-1 0-1 0-1 0z" horiz-adv-x="1000" />

<glyph glyph-name="spin6" unicode="&#xe805;" d="M855 3c-189-190-520-172-705 13-190 190-200 494-28 695 11 13 21 26 35 34 36 23 85 18 117-13 30-31 35-76 16-112-5-9-9-15-16-22-140-151-145-379-8-516 153-153 407-121 542 34 106 122 142 297 77 451-83 198-305 291-510 222v1c236 82 492-24 588-252 71-167 37-355-72-493-11-15-23-29-36-42z" horiz-adv-x="1000" />

<glyph glyph-name="firefox" unicode="&#xe806;" d="M504-143c-216 0-387 126-466 306-87 200-17 521 139 663l-6-156c8 9 68 12 78-1 32 62 136 109 220 110-32-26-106-124-99-174 40-13 103-13 136-15 10-6 8-40-12-68-27-36-97-49-97-49l8-106-77 38c-26-64 35-120 97-110 69 12 94 57 142 54 49-2 68-29 61-54-7-30-59-25-59-25-44-70-103-100-198-92 144-119 338-11 387 86 50 97 7 242-43 283 59-25 99-51 120-107 11 124-46 266-149 349 193-56 311-205 314-444s-211-488-496-488z" horiz-adv-x="1000" />

<glyph glyph-name="chrome" unicode="&#xe807;" d="M498 844c-147-1-291-67-387-186l154-237c39 111 150 182 267 170l414-22c-42 84-108 157-196 208-79 46-166 67-252 67z m-416-226c-52-79-82-173-82-274 0-250 183-457 423-494l128 252c-116-22-233 39-281 146l-188 370z m885-94l-282-15c76-89 82-221 13-317l-226-347c94-6 190 15 278 66 216 125 304 387 217 613z m-467-11c-93 0-169-76-169-169s76-169 169-169 169 76 169 169-76 169-169 169z" horiz-adv-x="1000" />

<glyph glyph-name="opera" unicode="&#xe808;" d="M426-156c-568 0-568 1000 0 1000s567-1000 0-1000z m0 92c237 0 237 816 0 816s-238-816 0-816z" horiz-adv-x="850.6" />

<glyph glyph-name="ie" unicode="&#xe809;" d="M844 844c-81-1-181-46-281-106-239 35-498-103-509-386 60 93 224 257 367 301v-13c-179-90-571-612-360-773 90-69 310 37 344 76 29-5 59-8 89-8 201 0 371 124 424 292h-301c-13-56-56-92-121-92-102 0-126 68-126 151h561c29 204-114 385-306 439 174 115 363 161 299-104h20c35 109 21 191-38 213-18 7-37 10-58 10-1 0-3 0-4 0z m-352-303c79 0 128-48 128-129h-252c0 77 46 129 124 129z m-367-422c58-83 149-145 256-171-77-58-226-84-266-52-48 40-36 124 10 223z" horiz-adv-x="944.3" />

<glyph glyph-name="phone" unicode="&#xe80a;" d="M786 152q0-15-6-39t-12-38q-11-28-68-60-52-28-103-28-15 0-30 2t-32 7-26 8-31 11-28 10q-54 20-97 47-71 44-148 120t-120 148q-27 43-46 97-2 5-10 28t-12 31-8 26-7 32-2 29q0 52 29 104 31 57 59 68 14 6 38 12t39 6q8 0 12-2 10-3 30-42 6-11 16-31t20-35 17-30q2-2 10-14t12-20 4-16q0-11-16-27t-35-31-34-30-16-25q0-5 3-13t4-11 8-14 7-10q42-77 97-132t131-97q1 0 10-6t14-8 11-5 13-2q10 0 25 16t30 34 31 35 28 16q7 0 15-4t20-12 14-10q14-8 30-17t36-20 30-17q39-19 42-29 2-4 2-12z" horiz-adv-x="785.2" />

<glyph glyph-name="down-dir" unicode="&#xe80b;" d="M571 451q0-14-10-25l-250-250q-11-11-25-11t-25 11l-250 250q-11 11-11 25t11 25 25 11h500q14 0 25-11t10-25z" horiz-adv-x="571.3" />

<glyph glyph-name="cart" unicode="&#xe80c;" d="M357-13q0-29-21-50t-50-22-50 22-22 50 22 50 50 21 50-21 21-50z m500 0q0-29-21-50t-50-22-50 22-22 50 22 50 50 21 50-21 21-50z m72 607v-286q0-13-10-23t-22-12l-583-68q7-34 7-40 0-8-13-35h513q15 0 26-11t10-25-10-25-26-11h-571q-14 0-25 11t-11 25q0 6 5 18t9 20 12 22 8 17l-98 459h-114q-15 0-25 10t-11 25 11 26 25 10h143q9 0 16-3t10-9 8-14 4-14 3-17 3-14h670q14 0 25-11t11-25z" horiz-adv-x="927.7" />

<glyph glyph-name="up-dir" unicode="&#xe80d;" d="M571 165q0-14-10-25t-25-10h-500q-15 0-25 10t-11 25 11 26l250 250q10 10 25 10t25-10l250-250q10-11 10-26z" horiz-adv-x="571.3" />

<glyph glyph-name="mode-grid" unicode="&#xe80e;" d="M0-156v250h250v-250h-250z m0 375v250h250v-250h-250z m0 375v250h250v-250h-250z m375-750v250h250v-250h-250z m0 375v250h250v-250h-250z m0 375v250h250v-250h-250z m375-750v250h250v-250h-250z m0 375v250h250v-250h-250z m0 375v250h250v-250h-250z" horiz-adv-x="1000" />

<glyph glyph-name="mode-list" unicode="&#xe80f;" d="M0-156v250h250v-250h-250z m0 375v250h250v-250h-250z m0 375v250h250v-250h-250z m391-750v250h609v-250h-609z m0 375v250h609v-250h-609z m0 375v250h609v-250h-609z" horiz-adv-x="1000" />

<glyph glyph-name="compare" unicode="&#xe810;" d="M222-156h-222v333h222v-333z m371 0h-223v667h223v-667z m148 0v1000h222v-1000h-222z" horiz-adv-x="962.9" />

<glyph glyph-name="wishlist" unicode="&#xe811;" d="M775 843q126 0 207-80t81-207v-60q0-285-532-653-531 367-531 653v60q0 127 81 207t206 80q81 0 134-30t110-99q58 68 111 99t133 30z" horiz-adv-x="1063.5" />

<glyph glyph-name="search" unicode="&#xe812;" d="M746 203l254-255-105-105-254 254q-106-72-232-72-169 0-289 120t-120 289 120 289 289 120 289-120 120-289q0-127-72-231z m-65 231q0 113-79 193t-193 80-193-80-80-193 80-192 193-80 193 80 79 192z" horiz-adv-x="1000" />

<glyph glyph-name="left-dir" unicode="&#xe813;" d="M357 594v-500q0-14-10-25t-26-11-25 11l-250 250q-10 11-10 25t10 25l250 250q11 11 25 11t26-11 10-25z" horiz-adv-x="357.4" />

<glyph glyph-name="right-dir" unicode="&#xe814;" d="M321 344q0-14-10-25l-250-250q-11-11-25-11t-25 11-11 25v500q0 15 11 25t25 11 25-11l250-250q10-10 10-25z" horiz-adv-x="357.4" />

<glyph glyph-name="down-open" unicode="&#xe815;" d="M939 393l-414-413q-10-11-25-11t-25 11l-414 413q-11 11-11 26t11 25l93 92q10 11 25 11t25-11l296-296 296 296q11 11 25 11t26-11l92-92q11-11 11-25t-11-26z" horiz-adv-x="1000" />

<glyph glyph-name="left-open" unicode="&#xe816;" d="M654 676l-297-296 297-297q10-10 10-25t-10-25l-93-93q-11-10-25-10t-25 10l-414 415q-11 10-11 25t11 25l414 414q10 11 25 11t25-11l93-93q10-10 10-25t-10-25z" horiz-adv-x="713.9" />

<glyph glyph-name="right-open" unicode="&#xe817;" d="M618 355l-414-415q-11-10-25-10t-25 10l-93 93q-11 11-11 25t11 25l296 297-296 296q-11 11-11 25t11 25l93 93q10 11 25 11t25-11l414-414q10-11 10-25t-10-25z" horiz-adv-x="713.9" />

<glyph glyph-name="up-open" unicode="&#xe818;" d="M939 101l-92-92q-11-10-26-10t-25 10l-296 297-296-297q-11-10-25-10t-25 10l-93 92q-11 11-11 26t11 25l414 414q11 10 25 10t25-10l414-414q11-11 11-25t-11-26z" horiz-adv-x="1000" />

<glyph glyph-name="angle-left" unicode="&#xe819;" d="M350 540q0-7-6-12l-219-220 219-219q6-6 6-13t-6-13l-28-28q-5-5-12-5t-13 5l-260 261q-6 5-6 12t6 13l260 260q5 6 13 6t12-6l28-28q6-5 6-13z" horiz-adv-x="357.4" />

<glyph glyph-name="angle-right" unicode="&#xe81a;" d="M332 308q0-7-5-12l-261-261q-5-5-12-5t-13 5l-28 28q-6 6-6 13t6 13l219 219-219 220q-6 5-6 12t6 13l28 28q5 6 13 6t12-6l261-260q5-5 5-13z" horiz-adv-x="357.4" />

<glyph glyph-name="angle-up" unicode="&#xe81b;" d="M600 183q0-7-6-12l-28-28q-5-6-12-6t-13 6l-220 219-219-219q-5-6-13-6t-12 6l-28 28q-6 5-6 12t6 13l260 260q5 6 12 6t13-6l260-260q6-5 6-13z" horiz-adv-x="641.6" />

<glyph glyph-name="angle-down" unicode="&#xe81c;" d="M600 433q0-7-6-12l-260-261q-5-5-13-5t-12 5l-260 261q-6 5-6 12t6 13l28 28q5 6 12 6t13-6l219-219 220 219q5 6 13 6t12-6l28-28q6-5 6-13z" horiz-adv-x="641.6" />

<glyph glyph-name="down" unicode="&#xe81d;" d="M427 119q4-10-3-19l-195-215q-6-5-13-5-8 0-13 5l-198 215q-8 9-3 19 5 11 16 11h125v696q0 8 5 13t13 5h107q8 0 13-5t5-13v-696h125q11 0 16-11z" horiz-adv-x="427.7" />

<glyph glyph-name="left" unicode="&#xe81e;" d="M1000 398v-108q0-7-5-12t-13-5h-696v-125q0-12-11-17t-19 3l-215 196q-5 5-5 12 0 8 5 14l215 197q9 8 19 4 11-5 11-17v-125h696q8 0 13-5t5-12z" horiz-adv-x="1000" />

<glyph glyph-name="right" unicode="&#xe81f;" d="M964 346q0-8-5-14l-215-197q-8-8-19-4-11 5-11 17v125h-696q-8 0-13 5t-5 12v108q0 7 5 12t13 5h696v125q0 12 11 17t19-3l215-195q5-6 5-13z" horiz-adv-x="1000" />

<glyph glyph-name="up" unicode="&#xe820;" d="M427 569q-5-11-16-11h-125v-696q0-8-5-13t-13-5h-107q-8 0-13 5t-5 13v696h-125q-12 0-16 11t3 19l195 215q5 5 13 5 7 0 13-5l198-215q7-8 3-19z" horiz-adv-x="427.7" />

<glyph glyph-name="angle-double-left" unicode="&#xe821;" d="M350 76q0-7-6-13l-28-28q-5-5-12-5t-13 5l-260 261q-6 5-6 12t6 13l260 260q5 6 13 6t12-6l28-28q6-5 6-13t-6-12l-219-220 219-219q6-6 6-13z m214 0q0-7-5-13l-28-28q-6-5-13-5t-13 5l-260 261q-6 5-6 12t6 13l260 260q6 6 13 6t13-6l28-28q5-5 5-13t-5-12l-220-220 220-219q5-6 5-13z" horiz-adv-x="571.3" />

<glyph glyph-name="angle-double-right" unicode="&#xe822;" d="M332 308q0-7-5-12l-261-261q-5-5-12-5t-13 5l-28 28q-6 6-6 13t6 13l219 219-219 220q-6 5-6 12t6 13l28 28q5 6 13 6t12-6l261-260q5-5 5-13z m214 0q0-7-5-12l-260-261q-6-5-13-5t-13 5l-28 28q-5 6-5 13t5 13l219 219-219 220q-5 5-5 12t5 13l28 28q6 6 13 6t13-6l260-260q5-5 5-13z" horiz-adv-x="571.3" />

<glyph glyph-name="angle-double-up" unicode="&#xe823;" d="M600 112q0-7-6-13l-28-28q-5-5-12-5t-13 5l-220 219-219-219q-5-5-13-5t-12 5l-28 28q-6 6-6 13t6 13l260 260q5 5 12 5t13-5l260-260q6-6 6-13z m0 214q0-7-6-13l-28-28q-5-5-12-5t-13 5l-220 220-219-220q-5-5-13-5t-12 5l-28 28q-6 6-6 13t6 13l260 260q5 6 12 6t13-6l260-260q6-6 6-13z" horiz-adv-x="641.6" />

<glyph glyph-name="angle-double-down" unicode="&#xe824;" d="M600 362q0-7-6-13l-260-260q-5-6-13-6t-12 6l-260 260q-6 6-6 13t6 13l28 28q5 5 12 5t13-5l219-220 220 220q5 5 13 5t12-5l28-28q6-6 6-13z m0 214q0-7-6-13l-260-260q-5-5-13-5t-12 5l-260 260q-6 6-6 13t6 13l28 28q5 6 12 6t13-6l219-219 220 219q5 6 13 6t12-6l28-28q6-6 6-13z" horiz-adv-x="641.6" />

<glyph glyph-name="mail" unicode="&#xe825;" d="M929 5v428q-18-20-39-36-149-115-238-189-28-24-46-37t-48-28-57-13h-2q-26 0-57 13t-48 28-46 37q-88 74-238 189-21 16-39 36v-428q0-7 6-13t12-5h822q7 0 12 5t6 13z m0 586v14t-1 7-1 7-3 5-5 4-8 2h-822q-7 0-12-6t-6-12q0-94 83-159 107-84 223-176 4-3 20-17t25-21 25-17 28-16 24-5h2q11 0 24 5t28 16 25 17 25 21 20 17q116 92 224 176 30 24 56 65t26 73z m71 21v-607q0-37-26-63t-63-27h-822q-36 0-63 27t-26 63v607q0 37 26 63t63 26h822q37 0 63-26t26-63z" horiz-adv-x="1000" />

<glyph glyph-name="location" unicode="&#xe826;" d="M429 487q0 59-42 101t-101 42-101-42-42-101 42-101 101-42 101 42 42 101z m142 0q0-61-18-100l-203-432q-9-18-27-29t-37-11-38 11-26 29l-204 432q-18 39-18 100 0 118 84 202t202 84 202-84 83-202z" horiz-adv-x="571.3" />

<glyph glyph-name="skype" unicode="&#xe827;" d="M894 244q26-58 26-118 0-108-75-185t-179-77q-62 0-120 32-52-8-80-8-182 0-311 132t-129 320q0 44 10 90-36 60-36 134 0 108 74 184t180 76q74 0 136-40 32 8 76 8 182 0 310-132t128-320q0-46-10-96z m-204-120q30 46 30 100 0 44-16 80-16 30-50 54-36 22-76 36-68 20-96 26-14 2-35 7t-27 7q-24 8-34 14-16 8-26 22-10 10-10 26 0 24 28 42 26 20 76 20t74-18q26-22 38-50 16-26 26-36 16-12 38-12 26 0 46 20 18 18 18 44 0 20-14 52-16 24-42 48-28 22-74 38-48 14-102 14-72 0-128-22-56-20-86-60t-30-92 28-90q34-40 76-56 48-22 116-36 12-2 29-7t30-8 21-5q28-10 46-28 18-14 18-42 0-34-32-56-36-24-90-24-40 0-64 12-26 14-36 28-24 44-26 46-8 24-24 40-20 14-40 14-28 0-46-18t-18-42q0-38 28-82 26-40 72-66 64-34 158-34 78 0 138 24 60 28 88 70z" horiz-adv-x="919.9" />

<glyph glyph-name="right-open-big" unicode="&#xe828;" d="M13-26l358 370-358 372q-26 26 0 48 26 26 48 0l392-394q24-26 0-50l-392-394q-22-26-48 0-26 22 0 48z" horiz-adv-x="464.8" />

<glyph glyph-name="left-open-big" unicode="&#xe829;" d="M452-26q26-26 0-48-26-26-48 0l-392 394q-24 24 0 50l392 394q22 26 48 0 26-22 0-48l-358-372z" horiz-adv-x="464.8" />

<glyph glyph-name="down-open-big" unicode="&#xe82a;" d="M63 564l370-356 372 356q22 26 48 0 26-22 0-48l-396-392q-22-22-48 0l-396 392q-26 26 0 48 24 24 50 0z" horiz-adv-x="866.2" />

<glyph glyph-name="up-open-big" unicode="&#xe82b;" d="M804 124l-372 358-370-358q-26-22-50 0-24 24 0 50l396 390q26 26 48 0l396-390q24-26 0-50-26-22-48 0z" horiz-adv-x="864.3" />

<glyph glyph-name="cancel" unicode="&#xe82c;" d="M724 106q0-22-15-38l-76-76q-16-15-38-15t-38 15l-164 165-164-165q-16-15-38-15t-38 15l-76 76q-16 16-16 38t16 38l164 164-164 164q-16 16-16 38t16 38l76 76q16 16 38 16t38-16l164-164 164 164q16 16 38 16t38-16l76-76q15-15 15-38t-15-38l-164-164 164-164q15-15 15-38z" horiz-adv-x="785.2" />

<glyph glyph-name="user" unicode="&#xe82d;" d="M714 63q0-60-35-104t-84-44h-476q-49 0-84 44t-35 104q0 48 5 90t17 85 33 73 52 50 76 19q73-72 174-72t175 72q42 0 75-19t52-50 33-73 18-85 4-90z m-143 495q0-88-62-151t-152-63-151 63-63 151 63 152 151 63 152-63 62-152z" horiz-adv-x="713.9" />

<glyph glyph-name="mail-alt" unicode="&#xe82e;" d="M1000 448v-443q0-37-26-63t-63-27h-822q-36 0-63 27t-26 63v443q25-27 56-49 202-137 278-192 32-24 51-37t53-27 61-13h2q28 0 61 13t53 27 51 37q95 68 278 192 32 22 56 49z m0 164q0-44-27-84t-68-69q-210-146-262-181-5-4-23-17t-30-22-29-18-32-15-28-5h-2q-12 0-27 5t-32 15-30 18-30 22-23 17q-51 35-147 101t-114 80q-35 23-65 64t-31 77q0 43 23 72t66 29h822q36 0 63-26t26-63z" horiz-adv-x="1000" />

<glyph glyph-name="fax" unicode="&#xe82f;" d="M161 630q37 0 63-26t26-64v-607q0-37-26-63t-63-26h-72q-36 0-63 26t-26 63v607q0 37 26 64t63 26h72z m768-91q32-19 52-52t19-72v-428q0-59-42-101t-101-42h-482q-37 0-63 26t-26 63v857q0 23 15 38t38 16h375q23 0 49-11t43-27l85-85q15-15 26-42t12-49v-91z m-411-552v71q0 8-5 13t-13 5h-71q-8 0-13-5t-5-13v-71q0-8 5-13t13-5h71q8 0 13 5t5 13z m0 143v71q0 8-5 13t-13 5h-71q-8 0-13-5t-5-13v-71q0-8 5-13t13-5h71q8 0 13 5t5 13z m0 143v71q0 8-5 13t-13 5h-71q-8 0-13-5t-5-13v-71q0-8 5-13t13-5h71q8 0 13 5t5 13z m143-286v71q0 8-5 13t-13 5h-72q-7 0-12-5t-5-13v-71q0-8 5-13t12-5h72q8 0 13 5t5 13z m0 143v71q0 8-5 13t-13 5h-72q-7 0-12-5t-5-13v-71q0-8 5-13t12-5h72q8 0 13 5t5 13z m0 143v71q0 8-5 13t-13 5h-72q-7 0-12-5t-5-13v-71q0-8 5-13t12-5h72q8 0 13 5t5 13z m143-286v71q0 8-5 13t-13 5h-72q-7 0-12-5t-6-13v-71q0-8 6-13t12-5h72q8 0 13 5t5 13z m0 143v71q0 8-5 13t-13 5h-72q-7 0-12-5t-6-13v-71q0-8 6-13t12-5h72q8 0 13 5t5 13z m0 143v71q0 8-5 13t-13 5h-72q-7 0-12-5t-6-13v-71q0-8 6-13t12-5h72q8 0 13 5t5 13z m53 214v143h-89q-22 0-38 15t-16 38v90h-357v-286h500z" horiz-adv-x="1000" />

<glyph glyph-name="lock" unicode="&#xe830;" d="M179 415h285v108q0 59-42 101t-101 41-101-41-41-101v-108z m464-53v-322q0-22-16-37t-38-16h-535q-23 0-38 16t-16 37v322q0 22 16 38t38 15h17v108q0 102 74 176t176 74 177-74 73-176v-108h18q23 0 38-15t16-38z" horiz-adv-x="641.6" />

<glyph glyph-name="company" unicode="&#xe831;" d="M357 701h286v72h-286v-72z m643-357v-268q0-37-26-63t-63-26h-822q-36 0-63 26t-26 63v268h375v-89q0-15 11-25t25-11h178q15 0 25 11t11 25v89h375z m-429 0v-71h-142v71h142z m429 268v-214h-1000v214q0 37 26 63t63 26h197v89q0 23 15 38t38 16h322q22 0 38-16t15-38v-89h197q37 0 63-26t26-63z" horiz-adv-x="1000" />

<glyph glyph-name="city" unicode="&#xe832;" d="M750 844q15 0 25-11t11-25v-928q0-15-11-25t-25-11h-714q-15 0-25 11t-11 25v928q0 15 11 25t25 11h714z m-464-161v-35q0-8 5-13t13-5h35q8 0 13 5t5 13v35q0 8-5 13t-13 5h-35q-8 0-13-5t-5-13z m0-143v-35q0-8 5-13t13-5h35q8 0 13 5t5 13v35q0 8-5 13t-13 5h-35q-8 0-13-5t-5-13z m0-142v-36q0-8 5-13t13-5h35q8 0 13 5t5 13v36q0 7-5 12t-13 5h-35q-8 0-13-5t-5-12z m0-143v-36q0-8 5-13t13-5h35q8 0 13 5t5 13v36q0 8-5 13t-13 5h-35q-8 0-13-5t-5-13z m-72-179v36q0 8-5 13t-13 5h-35q-8 0-13-5t-5-13v-36q0-8 5-13t13-5h35q8 0 13 5t5 13z m0 143v36q0 8-5 13t-13 5h-35q-8 0-13-5t-5-13v-36q0-8 5-13t13-5h35q8 0 13 5t5 13z m0 143v36q0 7-5 12t-13 5h-35q-8 0-13-5t-5-12v-36q0-8 5-13t13-5h35q8 0 13 5t5 13z m0 143v35q0 8-5 13t-13 5h-35q-8 0-13-5t-5-13v-35q0-8 5-13t13-5h35q8 0 13 5t5 13z m0 143v35q0 8-5 13t-13 5h-35q-8 0-13-5t-5-13v-35q0-8 5-13t13-5h35q8 0 13 5t5 13z m286-715v107q0 8-5 13t-13 5h-178q-8 0-13-5t-5-13v-107q0-8 5-13t13-5h178q8 0 13 5t5 13z m0 286v36q0 8-5 13t-13 5h-36q-7 0-12-5t-5-13v-36q0-8 5-13t12-5h36q8 0 13 5t5 13z m0 143v36q0 7-5 12t-13 5h-36q-7 0-12-5t-5-12v-36q0-8 5-13t12-5h36q8 0 13 5t5 13z m0 143v35q0 8-5 13t-13 5h-36q-7 0-12-5t-5-13v-35q0-8 5-13t12-5h36q8 0 13 5t5 13z m0 143v35q0 8-5 13t-13 5h-36q-7 0-12-5t-5-13v-35q0-8 5-13t12-5h36q8 0 13 5t5 13z m143-572v36q0 8-5 13t-13 5h-36q-7 0-12-5t-6-13v-36q0-8 6-13t12-5h36q8 0 13 5t5 13z m0 143v36q0 8-5 13t-13 5h-36q-7 0-12-5t-6-13v-36q0-8 6-13t12-5h36q8 0 13 5t5 13z m0 143v36q0 7-5 12t-13 5h-36q-7 0-12-5t-6-12v-36q0-8 6-13t12-5h36q8 0 13 5t5 13z m0 143v35q0 8-5 13t-13 5h-36q-7 0-12-5t-6-13v-35q0-8 6-13t12-5h36q8 0 13 5t5 13z m0 143v35q0 8-5 13t-13 5h-36q-7 0-12-5t-6-13v-35q0-8 6-13t12-5h36q8 0 13 5t5 13z" horiz-adv-x="857.4" />

<glyph glyph-name="post" unicode="&#xe833;" d="M786 290v-267q0-15-11-25t-25-11h-214v214h-143v-214h-214q-15 0-25 11t-11 25v267q0 1 0 2t0 2l321 264 321-264q1-1 1-4z m124 39l-34-41q-5-5-12-6h-2q-7 0-12 3l-386 322-386-322q-7-4-13-3-7 1-12 6l-35 41q-4 6-3 13t6 12l401 334q18 15 42 15t43-15l136-113v108q0 8 5 13t13 5h107q8 0 13-5t5-13v-227l122-102q6-4 6-12t-4-13z" horiz-adv-x="927.7" />

<glyph glyph-name="country" unicode="&#xe834;" d="M179 701q0-40-36-61v-707q0-7-5-12t-13-6h-36q-7 0-12 6t-6 12v707q-35 21-35 61 0 30 21 51t50 21 51-21 21-51z m821-36v-425q0-14-7-22t-22-15q-120-65-206-65-34 0-69 12t-60 27-65 27-79 12q-107 0-259-81-10-5-19-5-14 0-25 10t-10 25v415q0 17 17 30 12 8 44 24 132 67 235 67 60 0 112-16t122-49q21-11 49-11 30 0 65 12t62 26 49 26 30 12q15 0 25-10t11-26z" horiz-adv-x="1000" />

<glyph glyph-name="calendar" unicode="&#xe835;" d="M71-85h161v161h-161v-161z m197 0h178v161h-178v-161z m-197 197h161v178h-161v-178z m197 0h178v178h-178v-178z m-197 214h161v161h-161v-161z m411-411h179v161h-179v-161z m-214 411h178v161h-178v-161z m428-411h161v161h-161v-161z m-214 197h179v178h-179v-178z m-196 482v161q0 7-6 12t-12 6h-36q-7 0-12-6t-6-12v-161q0-7 6-13t12-5h36q7 0 12 5t6 13z m410-482h161v178h-161v-178z m-214 214h179v161h-179v-161z m214 0h161v161h-161v-161z m18 268v161q0 7-5 12t-13 6h-35q-7 0-13-6t-5-12v-161q0-7 5-13t13-5h35q8 0 13 5t5 13z m215 36v-715q0-29-22-50t-50-21h-786q-29 0-50 21t-21 50v715q0 29 21 50t50 21h72v54q0 37 26 63t63 26h36q37 0 63-26t26-63v-54h214v54q0 37 27 63t63 26h35q37 0 64-26t26-63v-54h71q29 0 50-21t22-50z" horiz-adv-x="927.7" />

<glyph glyph-name="doc" unicode="&#xe836;" d="M819 632q16-16 27-42t11-50v-642q0-23-15-38t-38-16h-750q-23 0-38 16t-16 38v892q0 23 16 38t38 16h500q22 0 49-11t42-27z m-248 136v-210h210q-5 17-12 23l-175 175q-6 7-23 12z m215-853v572h-232q-23 0-38 16t-16 37v233h-429v-858h715z" horiz-adv-x="857.4" />

<glyph glyph-name="mobile" unicode="&#xe837;" d="M480 834q42 0 71-29t29-71v-780q0-40-29-70t-71-30h-380q-40 0-70 30t-30 70v780q0 42 30 71t70 29h380z m-190-940q30 0 50 15t20 35q0 22-20 36t-50 14q-28 0-49-15t-21-35 21-35 49-15z m210 150v660h-420v-660h420z" horiz-adv-x="580.1" />

<glyph glyph-name="clock" unicode="&#xe838;" d="M500 540v-250q0-7-5-12t-13-5h-178q-8 0-13 5t-5 12v36q0 8 5 13t13 5h125v196q0 8 5 13t12 5h36q8 0 13-5t5-13z m232-196q0 83-41 152t-110 111-152 41-153-41-110-111-41-152 41-152 110-111 153-41 152 41 110 111 41 152z m125 0q0-117-57-215t-156-156-215-58-216 58-155 156-58 215 58 215 155 156 216 58 215-58 156-156 57-215z" horiz-adv-x="857.4" />

<glyph glyph-name="chat" unicode="&#xe839;" d="M786 415q0-77-53-143t-143-104-197-38q-48 0-98 9-70-49-155-72-21-5-48-9h-2q-6 0-12 5t-6 12q-1 1-1 3t1 4 1 3l1 3t2 3 2 3 3 3 2 2q3 3 13 14t15 16 12 17 14 21 11 25q-69 40-108 98t-40 125q0 78 53 144t143 104 197 38 197-38 143-104 53-144z m214-142q0-67-40-126t-108-98q5-14 11-25t14-21 13-16 14-17 13-14q0 0 2-2t3-3 2-3 2-3l1-3t1-3 1-4-1-3q-2-8-7-13t-12-4q-28 4-48 9-86 23-156 72-50-9-98-9-151 0-263 74 32-3 49-3 90 0 172 25t148 72q69 52 107 119t37 141q0 43-13 85 72-39 114-99t42-128z" horiz-adv-x="1000" />

<glyph glyph-name="tag" unicode="&#xe83a;" d="M250 594q0 30-21 51t-50 20-51-20-21-51 21-50 51-21 50 21 21 50z m595-321q0-30-20-51l-274-274q-22-21-51-21-30 0-50 21l-399 399q-21 21-36 57t-15 65v232q0 29 21 50t50 22h233q29 0 65-15t57-36l399-399q20-21 20-50z" horiz-adv-x="857.4" />

<glyph glyph-name="folder" unicode="&#xe83b;" d="M929 505v-393q0-51-37-88t-88-37h-679q-51 0-88 37t-37 88v536q0 51 37 88t88 37h179q51 0 88-37t37-88v-18h375q51 0 88-37t37-88z" horiz-adv-x="927.7" />

<glyph glyph-name="folder-open" unicode="&#xe83c;" d="M1049 313q0-17-18-37l-187-221q-24-28-67-48t-81-20h-607q-19 0-33 7t-15 24q0 17 17 37l188 221q24 28 67 48t80 20h607q19 0 34-7t15-24z m-192 192v-90h-464q-53 0-110-26t-92-67l-188-221-2-3q0 2-1 7t0 7v536q0 51 37 88t88 37h179q51 0 88-37t37-88v-18h303q52 0 88-37t37-88z" horiz-adv-x="1071.3" />

<glyph glyph-name="forward" unicode="&#xe83d;" d="M1000 487q0-15-11-25l-285-286q-11-11-25-11t-25 11-11 25v143h-125q-55 0-98-3t-86-12-74-24-59-39-45-56-27-77-10-101q0-31 3-69 0-4 2-13t1-15q0-8-5-14t-13-6q-9 0-15 10-4 5-8 12t-7 17-6 13q-71 159-71 252 0 111 30 186 90 225 488 225h125v143q0 14 11 25t25 10 25-10l285-286q11-11 11-25z" horiz-adv-x="1000" />

<glyph glyph-name="reply" unicode="&#xe83e;" d="M1000 219q0-93-71-252-1-4-6-13t-7-17-7-12q-7-10-16-10-8 0-13 6t-5 14q0 5 1 15t2 13q3 38 3 69 0 56-10 101t-27 77-45 56-59 39-74 24-86 12-98 3h-125v-143q0-14-10-25t-26-11-25 11l-285 286q-11 10-11 25t11 25l285 286q11 10 25 10t26-10 10-25v-143h125q398 0 488-225 30-75 30-186z" horiz-adv-x="1000" />

<glyph glyph-name="cog" unicode="&#xe83f;" d="M571 344q0 59-41 101t-101 42-101-42-42-101 42-101 101-42 101 42 41 101z m286 61v-124q0-7-4-13t-11-7l-104-16q-10-30-21-51 19-27 59-77 6-6 6-13t-5-13q-15-21-55-61t-53-39q-7 0-14 5l-77 60q-25-13-51-21-9-76-16-104-4-16-20-16h-124q-8 0-14 5t-6 12l-16 103q-27 9-50 21l-79-60q-6-5-14-5t-14 6q-70 64-92 94-4 5-4 13 0 6 5 12 8 12 28 37t30 40q-15 28-23 55l-102 15q-7 1-11 7t-5 13v124q0 7 5 13t10 7l104 16q8 25 22 51-23 32-60 77-6 7-6 14 0 5 5 12 15 20 55 60t53 40q7 0 15-5l77-60q24 13 50 21 9 76 17 104 3 16 20 16h124q7 0 13-5t7-12l15-103q28-9 51-20l79 59q5 5 13 5 7 0 14-5 72-67 92-95 4-5 4-12t-4-13q-9-12-29-37t-30-40q15-28 23-54l102-16q7-1 12-7t4-13z" horiz-adv-x="857.4" />

<glyph glyph-name="cog-alt" unicode="&#xe840;" d="M500 344q0 59-42 101t-101 42-101-42-42-101 42-101 101-42 101 42 42 101z m429-286q0 29-22 51t-50 21-50-21-21-51q0-29 21-50t50-21 51 21 21 50z m0 572q0 29-22 50t-50 21-50-21-21-50q0-30 21-51t50-21 51 21 21 51z m-215-235v-103q0-6-4-11t-8-6l-87-14q-6-19-18-42 19-27 50-64 4-6 4-11 0-7-4-11-12-17-46-50t-43-33q-7 0-12 4l-64 50q-21-11-43-17-6-60-13-87-4-13-17-13h-104q-6 0-11 4t-5 10l-13 85q-19 6-42 18l-66-50q-4-4-11-4-6 0-12 4-80 75-80 90 0 5 4 10 5 8 23 30t26 34q-13 24-20 46l-85 13q-5 1-9 5t-4 11v104q0 5 4 10t9 6l86 14q7 19 18 42-19 27-50 64-4 6-4 11 0 7 4 12 12 16 46 49t44 33q6 0 12-4l64-50q19 10 43 18 6 60 13 86 3 13 16 13h104q6 0 11-4t6-10l13-85q19-6 42-17l65 49q5 4 12 4 6 0 11-4 81-75 81-90 0-4-4-10-7-9-24-30t-25-34q13-27 19-46l85-12q6-2 9-6t4-11z m357-298v-78q0-9-83-17-6-15-16-29 28-63 28-77 0-2-2-4-68-40-69-40-5 0-26 27t-29 37q-11-1-17-1t-17 1q-7-11-29-37t-25-27q-1 0-69 40-3 2-3 4 0 14 29 77-10 14-17 29-83 8-83 17v78q0 9 83 18 7 16 17 29-29 63-29 77 0 2 3 4 2 1 19 11t33 19 17 9q4 0 25-26t29-38q12 1 17 1t17-1q28 40 51 63l4 1q2 0 69-39 2-2 2-4 0-14-28-77 9-13 16-29 83-9 83-18z m0 572v-78q0-9-83-18-6-15-16-29 28-63 28-77 0-2-2-4-68-39-69-39-5 0-26 26t-29 38q-11-1-17-1t-17 1q-7-12-29-38t-25-26q-1 0-69 39-3 2-3 4 0 14 29 77-10 14-17 29-83 9-83 18v78q0 9 83 17 7 16 17 29-29 63-29 77 0 2 3 4 2 1 19 11t33 19 17 9q4 0 25-26t29-37q12 1 17 1t17-1q28 39 51 62l4 1q2 0 69-39 2-2 2-4 0-14-28-77 9-13 16-29 83-8 83-17z" horiz-adv-x="1071.3" />

<glyph glyph-name="wrench" unicode="&#xe841;" d="M214 23q0 14-10 25t-25 10-25-10-11-25 11-25 25-11 25 11 10 25z m360 234l-381-381q-21-20-50-20t-51 20l-59 61q-21 20-21 50 0 29 21 51l380 380q22-55 64-97t97-64z m354 243q0-22-13-59-27-75-92-122t-144-46q-104 0-177 73t-73 177 73 176 177 74q32 0 67-10t60-26q9-6 9-15t-9-16l-163-94v-125l108-60q2 2 44 27t75 45 40 20q8 0 13-5t5-14z" horiz-adv-x="927.7" />

<glyph glyph-name="quote-left" unicode="&#xe842;" d="M911 10h-335v335q0 139 99 236t236 98v-111q-93 0-158-66t-65-157h223v-335z m-558 0h-335v335q0 139 98 236t237 98v-111q-93 0-158-66t-65-157h223v-335z" horiz-adv-x="927.7" />

<glyph glyph-name="quote-right" unicode="&#xe843;" d="M18 679h335v-334q0-140-98-238t-237-97v111q92 0 158 65t65 159h-223v334z m558 0h335v-334q0-140-98-238t-237-97v111q92 0 158 65t65 159h-223v334z" horiz-adv-x="927.7" />

<glyph glyph-name="gift" unicode="&#xe844;" d="M518 87v400h-179v-400q0-14 10-21t26-8h107q16 0 26 8t10 21z m-255 471h109l-70 90q-15 17-39 17-22 0-38-15t-15-38 15-38 38-16z m384 54q0 22-15 38t-38 15q-24 0-39-17l-69-90h108q22 0 38 16t15 38z m210-143v-179q0-7-5-12t-13-5h-53v-233q0-22-16-37t-38-16h-607q-22 0-38 16t-16 37v233h-53q-8 0-13 5t-5 12v179q0 8 5 13t13 5h245q-51 0-88 36t-37 89 37 88 88 37q60 0 94-43l72-92 71 92q34 43 94 43 52 0 88-37t37-88-37-89-88-36h245q8 0 13-5t5-13z" horiz-adv-x="857.4" />

<glyph glyph-name="dollar" unicode="&#xe845;" d="M546 183q0-86-56-147t-144-77v-97q0-8-5-13t-13-5h-75q-7 0-13 5t-5 13v97q-37 5-71 18t-57 25-41 26-26 21-10 10q-9 12-1 23l58 76q3 5 12 6t14-5l1-1q63-55 135-70 21-4 42-4 45 0 79 24t35 68q0 16-9 30t-18 23-33 21-37 18-45 18q-21 9-34 14t-34 15-35 17-32 20-29 24-25 27-20 32-11 37-5 44q0 77 55 135t142 75v100q0 7 5 13t13 5h75q8 0 13-5t5-13v-98q32-3 62-13t48-19 36-20 21-17 9-7q9-11 3-22l-46-81q-4-9-12-9-8-2-15 4-2 2-9 7t-21 14-33 18-42 15-47 6q-53 0-87-24t-33-62q0-14 4-27t17-23 22-18 31-18 34-15 39-15q30-11 45-17t43-20 42-24 34-28 30-35 18-43 7-52z" horiz-adv-x="571.3" />

<glyph glyph-name="euro" unicode="&#xe846;" d="M545 115l19-89q2-7-1-13t-10-8h-3q-2-1-6-2t-9-3-12-3-14-3-16-2-19-3-21-2-21 0q-131 0-228 73t-133 196h-53q-7 0-13 5t-5 13v63q0 7 5 12t13 6h37q-1 31 0 58h-37q-8 0-13 5t-5 13v64q0 8 5 13t13 5h55q37 117 135 188t224 72q57 0 108-13 6-2 11-9 4-6 2-13l-24-89q-2-7-8-11t-13-1l-2 1q-3 0-7 1l-10 2t-12 2-15 2-16 1-16 1q-71 0-126-36t-84-98h261q9 0 14-7 6-7 4-15l-13-63q-3-15-18-15h-273q-1-20 0-58h257q8 0 13-7t4-15l-14-63q-1-6-6-10t-11-4h-216q27-65 84-104t127-38q10 0 20 1t19 2 16 2 14 3 10 3l7 1 3 2q7 2 14-2 7-3 9-11z" horiz-adv-x="571.3" />

<glyph glyph-name="pound" unicode="&#xe847;" d="M569 210v-205q0-8-5-13t-13-5h-533q-8 0-13 5t-5 13v83q0 8 5 13t13 5h54v214h-53q-8 0-13 5t-5 13v73q0 8 5 13t13 5h53v124q0 96 69 158t175 62q104 0 187-70 5-5 6-12t-4-12l-57-71q-5-6-13-7-7-1-13 4-2 3-14 11t-39 18-51 10q-48 0-77-27t-29-68v-120h170q8 0 13-5t5-13v-73q0-7-5-13t-13-5h-170v-211h231v101q0 7 5 12t13 5h90q8 0 13-5t5-12z" horiz-adv-x="571.3" />

<glyph glyph-name="rupee" unicode="&#xe848;" d="M501 582v-57q0-8-5-13t-13-5h-93q-13-80-72-131t-154-61q93-99 256-299 8-9 2-19-5-10-16-10h-109q-9 0-14 7-171 204-278 318-5 5-5 13v70q0 8 5 13t13 5h62q74 0 119 24t57 70h-238q-8 0-13 5t-5 13v57q0 8 5 13t13 5h230q-31 63-149 63h-81q-7 0-13 5t-5 13v74q0 8 5 13t13 5h464q8 0 13-5t5-13v-57q0-8-5-13t-13-5h-130q26-34 36-80h95q8 0 13-5t5-13z" horiz-adv-x="501" />

<glyph glyph-name="yen" unicode="&#xe849;" d="M337-13h-96q-8 0-13 5t-5 13v184h-161q-7 0-13 5t-5 13v57q0 8 5 13t13 5h161v48h-161q-7 0-13 5t-5 12v58q0 8 5 13t13 5h119l-179 323q-4 9 0 18 6 9 16 9h108q11 0 16-10l120-238q11-21 32-69 5 13 17 38t15 34l107 234q4 11 16 11h106q10 0 15-9 5-8 1-18l-175-323h120q7 0 13-5t5-13v-58q0-7-5-12t-13-5h-162v-48h162q7 0 13-5t5-13v-57q0-8-5-13t-13-5h-162v-184q0-7-5-13t-12-5z" horiz-adv-x="573.2" />

<glyph glyph-name="rouble" unicode="&#xe84a;" d="M582 529q0 56-36 90t-96 35h-178v-250h178q60 0 96 34t36 91z m132 0q0-108-70-176t-182-68h-190v-66h282q7 0 12-5t5-13v-71q0-8-5-13t-12-5h-282v-107q0-8-5-13t-13-5h-93q-8 0-13 5t-5 13v107h-125q-8 0-13 5t-5 13v71q0 8 5 13t13 5h125v66h-125q-8 0-13 5t-5 13v83q0 7 5 12t13 6h125v351q0 8 5 13t13 5h301q111 0 182-68t70-176z" horiz-adv-x="713.9" />

<glyph glyph-name="try" unicode="&#xe84b;" d="M643 380q0-107-53-197t-143-143-197-53h-89q-8 0-13 5t-5 13v341l-120-37q-2-1-5-1-6 0-11 4-7 5-7 14v72q0 12 13 17l130 40v51l-120-36q-2-1-5-1-6 0-11 3-7 6-7 15v71q0 13 13 18l130 39v140q0 8 5 13t13 5h89q8 0 13-5t5-13v-101l209 64q9 3 16-2t7-15v-71q0-13-13-18l-219-67v-52l209 65q9 3 16-3t7-15v-71q0-13-13-17l-219-68v-272q105 8 177 85t73 183q0 8 5 13t13 5h89q8 0 13-5t5-13z" horiz-adv-x="641.6" />

<glyph glyph-name="won" unicode="&#xe84c;" d="M287 177l45 167h-89l42-167q1-1 1-2t0-2q0 1 1 2t0 2z m65 238l19 72h-163l18-72h126z m107 0h77l-19 72h-39z m250-238l44 167h-91l46-167q0 0 0-2t1-2q0 1 0 2t0 2z m62 238l19 72h-166l19-72h128z m229-17v-36q0-8-5-13t-13-5h-119l-91-344q-4-13-17-13h-89q-14 0-18 13l-92 344h-117l-93-344q-4-13-17-13h-89q-6 0-11 4t-6 9l-89 344h-116q-8 0-13 5t-5 13v36q0 7 5 12t13 5h98l-19 72h-79q-8 0-13 5t-5 13v35q0 8 5 13t13 5h61l-50 192q-3 9 3 16 5 7 14 7h77q14 0 17-14l50-201h201l54 201q4 14 17 14h70q14 0 18-14l54-201h204l52 201q3 14 17 14h77q9 0 14-7 6-7 3-16l-51-192h62q8 0 13-5t5-13v-35q0-8-5-13t-13-5h-81l-19-72h100q8 0 13-5t5-12z" horiz-adv-x="1000" />

<glyph glyph-name="bitcoin" unicode="&#xe84d;" d="M651 487q10-102-73-144 65-16 98-58t25-119q-4-40-18-70t-36-49-54-33-68-19-81-9v-142h-86v140q-45 0-68 1v-141h-86v142q-10 0-30 1t-31 0h-112l18 102h62q27 0 32 28v225h9q-4 0-9 0v161q-7 37-50 37h-62v92l119-1q35 0 54 1v141h86v-138q45 1 68 1v137h86v-141q44-4 78-13t63-25 46-43 20-64z m-120-304q0 20-8 35t-21 26-32 17-36 11-42 5-38 1-36 0-27-1v-189q5 0 21 0t27 0 29 1 33 2 32 5 31 8 26 11 22 17 14 22 5 29z m-39 265q0 19-7 33t-17 23-27 16-31 9-34 5-32 1-31 0-22-1v-171q3 0 20 0t26 0 27 1 31 3 29 6 27 10 21 15 15 22 5 28z" horiz-adv-x="713.9" />

<glyph glyph-name="ok" unicode="&#xe84e;" d="M933 528q0-22-16-38l-480-480q-16-15-38-15t-38 15l-278 278q-15 16-15 38t15 38l76 76q16 16 38 16t38-16l164-165 366 367q16 16 38 16t38-16l76-76q16-15 16-38z" horiz-adv-x="1000" />

<glyph glyph-name="chevron-left" unicode="&#xe84f;" d="M0 347l391 391q18 18 43 18 24 0 43-18 18-18 18-44t-18-43l-304-304 304-305q18-17 18-43t-18-43q-18-18-43-18t-43 18z" horiz-adv-x="495.1" />

<glyph glyph-name="chevron-right" unicode="&#xe850;" d="M0-6q0 25 18 43l305 304-305 304q-18 18-18 44t18 43 44 18 43-18l390-391-390-391q-19-18-43-18t-44 18q-18 18-18 44z" horiz-adv-x="495.1" />

<glyph glyph-name="export" unicode="&#xe851;" d="M0-156v1000h494v-164h-330v-672h672v184l164 174v-522h-1000z m232 277q0 86 12 159t28 124 47 92 57 68 67 45 70 27 72 14 67 6 63 1v187l285-285-285-285v205q-108 0-159-3t-121-21-102-54-61-107-40-173z" horiz-adv-x="1000" />

<glyph glyph-name="star" unicode="&#xe852;" d="M929 483q0-12-15-27l-202-197 48-279q0-4 0-12 0-11-6-19t-17-9q-10 0-22 7l-251 132-250-132q-12-7-23-7t-17 9-6 19q0 4 1 12l48 279-203 197q-14 15-14 27 0 21 31 26l280 40 126 254q11 23 27 23t28-23l125-254 280-40q32-5 32-26z" horiz-adv-x="927.7" />

<glyph glyph-name="star-empty" unicode="&#xe853;" d="M635 284l170 166-235 34-106 213-105-213-236-34 171-166-41-235 211 111 211-111z m294 199q0-12-15-27l-202-197 48-279q0-4 0-12 0-28-23-28-10 0-22 7l-251 132-250-132q-12-7-23-7t-17 9-6 19q0 4 1 12l48 279-203 197q-14 15-14 27 0 21 31 26l280 40 126 254q11 23 27 23t28-23l125-254 280-40q32-5 32-26z" horiz-adv-x="927.7" />

<glyph glyph-name="plus-squared" unicode="&#xe854;" d="M714 308v72q0 14-10 25t-25 10h-179v179q0 15-11 25t-25 11h-71q-15 0-25-11t-11-25v-179h-178q-15 0-25-10t-11-25v-72q0-14 11-25t25-10h178v-179q0-14 11-25t25-11h71q15 0 25 11t11 25v179h179q14 0 25 10t10 25z m143 304v-536q0-66-47-113t-114-48h-535q-67 0-114 48t-47 113v536q0 66 47 113t114 48h535q67 0 114-48t47-113z" horiz-adv-x="857.4" />

<glyph glyph-name="minus-squared" unicode="&#xe855;" d="M714 308v72q0 14-10 25t-25 10h-500q-15 0-25-10t-11-25v-72q0-14 11-25t25-10h500q14 0 25 10t10 25z m143 304v-536q0-66-47-113t-114-48h-535q-67 0-114 48t-47 113v536q0 66 47 113t114 48h535q67 0 114-48t47-113z" horiz-adv-x="857.4" />

<glyph glyph-name="plus-squared-alt" unicode="&#xe856;" d="M643 398v-36q0-8-5-13t-13-5h-196v-196q0-8-5-13t-13-5h-36q-8 0-13 5t-5 13v196h-196q-8 0-13 5t-5 13v36q0 7 5 12t13 5h196v197q0 8 5 13t13 5h36q8 0 13-5t5-13v-197h196q8 0 13-5t5-12z m71-250v464q0 37-26 63t-63 26h-464q-37 0-63-26t-27-63v-464q0-37 27-63t63-27h464q37 0 63 27t26 63z m72 464v-464q0-67-47-114t-114-47h-464q-67 0-114 47t-47 114v464q0 66 47 113t114 48h464q66 0 114-48t47-113z" horiz-adv-x="785.2" />

<glyph glyph-name="minus-squared-alt" unicode="&#xe857;" d="M643 398v-36q0-8-5-13t-13-5h-464q-8 0-13 5t-5 13v36q0 7 5 12t13 5h464q8 0 13-5t5-12z m71-250v464q0 37-26 63t-63 26h-464q-37 0-63-26t-27-63v-464q0-37 27-63t63-27h464q37 0 63 27t26 63z m72 464v-464q0-67-47-114t-114-47h-464q-67 0-114 47t-47 114v464q0 66 47 113t114 48h464q66 0 114-48t47-113z" horiz-adv-x="785.2" />

<glyph glyph-name="truck" unicode="&#xe858;" d="M357 58q0 29-21 51t-50 21-50-21-22-51 22-50 50-21 50 21 21 50z m-214 286h214v143h-88q-7 0-12-5l-109-109q-5-5-5-12v-17z m714-286q0 29-21 51t-50 21-50-21-22-51 22-50 50-21 50 21 21 50z m143 607v-571q0-8-2-15t-8-10-9-6-13-4-13-1-14 0-12 0q0-59-42-101t-101-42-101 42-42 101h-214q0-59-42-101t-101-42-101 42-42 101h-36q-1 0-12 0t-15 0-12 1-13 4-9 6-8 10-2 15q0 15 10 25t25 11v178q0 5 0 20t0 21 2 19 3 21 8 17 13 17l110 110q11 11 28 18t33 7h89v107q0 15 11 26t25 10h571q15 0 25-10t11-26z" horiz-adv-x="1000" />

<glyph glyph-name="lifebuoy" unicode="&#xe859;" d="M500 844q102 0 194-40t160-106 106-160 40-194-40-194-106-160-160-106-194-40-194 40-160 106-106 160-40 194 40 194 106 160 160 106 194 40z m0-71q-106 0-201-51l108-108q46 16 93 16t93-16l109 108q-96 51-202 51z m-378-630l108 108q-16 46-16 93t16 93l-108 109q-51-96-51-202t51-201z m378-228q106 0 202 51l-109 108q-46-16-93-16t-93 16l-108-108q95-51 201-51z m0 215q89 0 152 63t62 151-62 152-152 62-151-62-63-152 63-151 151-63z m270 121l108-108q51 95 51 201t-51 202l-108-109q16-46 16-93t-16-93z" horiz-adv-x="1000" />

<glyph glyph-name="pencil" unicode="&#xe85a;" d="M203-13l50 51-131 131-51-51v-60h72v-71h60z m291 518q0 12-12 12-5 0-9-4l-303-302q-4-4-4-10 0-12 13-12 5 0 9 4l303 302q3 4 3 10z m-30 107l232-232-464-465h-232v233z m381-54q0-29-20-50l-93-93-232 233 93 92q20 21 50 21 29 0 51-21l131-131q20-22 20-51z" horiz-adv-x="857.4" />

<glyph glyph-name="users" unicode="&#xe85b;" d="M331 344q-90-3-148-71h-75q-45 0-77 22t-31 66q0 197 69 197 4 0 25-11t54-24 66-12q38 0 75 13-3-21-3-37 0-78 45-143z m598-356q0-66-41-105t-108-39h-488q-68 0-108 39t-41 105q0 30 2 58t8 61 14 61 24 54 35 45 48 30 62 11q6 0 24-12t41-26 59-27 76-12 75 12 60 27 41 26 24 12q34 0 62-11t47-30 35-45 24-54 15-61 8-61 2-58z m-572 713q0-59-42-101t-101-42-101 42-42 101 42 101 101 42 101-42 42-101z m393-214q0-89-63-152t-151-62-152 62-63 152 63 151 152 63 151-63 63-151z m321-126q0-43-31-66t-77-22h-75q-57 68-147 71 45 65 45 143 0 16-3 37 37-13 74-13 33 0 67 12t54 24 24 11q69 0 69-197z m-71 340q0-59-42-101t-101-42-101 42-42 101 42 101 101 42 101-42 42-101z" horiz-adv-x="1071.3" />

<glyph glyph-name="video" unicode="&#xe85c;" d="M214-49v72q0 14-10 25t-25 10h-72q-14 0-25-10t-11-25v-72q0-14 11-25t25-11h72q14 0 25 11t10 25z m0 214v72q0 14-10 25t-25 11h-72q-14 0-25-11t-11-25v-72q0-14 11-25t25-10h72q14 0 25 10t10 25z m0 215v71q0 15-10 25t-25 11h-72q-14 0-25-11t-11-25v-71q0-15 11-25t25-11h72q14 0 25 11t10 25z m572-429v286q0 14-11 25t-25 11h-429q-14 0-25-11t-10-25v-286q0-14 10-25t25-11h429q15 0 25 11t11 25z m-572 643v71q0 15-10 26t-25 10h-72q-14 0-25-10t-11-26v-71q0-14 11-25t25-11h72q14 0 25 11t10 25z m786-643v72q0 14-11 25t-25 10h-71q-15 0-25-10t-11-25v-72q0-14 11-25t25-11h71q15 0 25 11t11 25z m-214 429v285q0 15-11 26t-25 10h-429q-14 0-25-10t-10-26v-285q0-15 10-25t25-11h429q15 0 25 11t11 25z m214-215v72q0 14-11 25t-25 11h-71q-15 0-25-11t-11-25v-72q0-14 11-25t25-10h71q15 0 25 10t11 25z m0 215v71q0 15-11 25t-25 11h-71q-15 0-25-11t-11-25v-71q0-15 11-25t25-11h71q15 0 25 11t11 25z m0 214v71q0 15-11 26t-25 10h-71q-15 0-25-10t-11-26v-71q0-14 11-25t25-11h71q15 0 25 11t11 25z m71 89v-750q0-37-26-63t-63-26h-893q-36 0-63 26t-26 63v750q0 37 26 63t63 27h893q37 0 63-27t26-63z" horiz-adv-x="1071.3" />

<glyph glyph-name="menu" unicode="&#xe85d;" d="M857 94v-71q0-15-10-25t-26-11h-785q-15 0-25 11t-11 25v71q0 15 11 25t25 11h785q15 0 26-11t10-25z m0 286v-72q0-14-10-25t-26-10h-785q-15 0-25 10t-11 25v72q0 14 11 25t25 10h785q15 0 26-10t10-25z m0 285v-71q0-14-10-25t-26-11h-785q-15 0-25 11t-11 25v71q0 15 11 26t25 10h785q15 0 26-10t10-26z" horiz-adv-x="857.4" />

<glyph glyph-name="desktop" unicode="&#xe85e;" d="M1000 290v465q0 7-5 12t-13 6h-893q-7 0-12-6t-6-12v-465q0-7 6-12t12-5h893q7 0 13 5t5 12z m71 465v-607q0-37-26-63t-63-27h-303q0-20 9-43t17-40 9-24q0-14-10-25t-25-11h-286q-15 0-25 11t-11 25q0 8 9 25t18 39 9 43h-304q-36 0-63 27t-26 63v607q0 37 26 63t63 26h893q37 0 63-26t26-63z" horiz-adv-x="1071.3" />

<glyph glyph-name="doc-inv" unicode="&#xe85f;" d="M571 558v264q13-8 21-16l227-228q8-7 16-20h-264z m-71-18q0-22 16-37t38-16h303v-589q0-23-15-38t-38-16h-750q-23 0-38 16t-16 38v892q0 23 16 38t38 16h446v-304z" horiz-adv-x="857.4" />

<glyph glyph-name="circle" unicode="&#xe860;" d="M857 344q0-117-57-215t-156-156-215-58-216 58-155 156-58 215 58 215 155 156 216 58 215-58 156-156 57-215z" horiz-adv-x="857.4" />

<glyph glyph-name="circle-empty" unicode="&#xe861;" d="M429 648q-83 0-153-41t-110-111-41-152 41-152 110-111 153-41 152 41 110 111 41 152-41 152-110 111-152 41z m428-304q0-117-57-215t-156-156-215-58-216 58-155 156-58 215 58 215 155 156 216 58 215-58 156-156 57-215z" horiz-adv-x="857.4" />

<glyph glyph-name="circle-thin" unicode="&#xe862;" d="M429 701q-73 0-139-28t-114-76-76-114-29-139 29-139 76-113 114-77 139-28 138 28 114 77 76 113 29 139-29 139-76 114-114 76-138 28z m428-357q0-117-57-215t-156-156-215-58-216 58-155 156-58 215 58 215 155 156 216 58 215-58 156-156 57-215z" horiz-adv-x="857.4" />

<glyph glyph-name="mini-cart" unicode="&#xe863;" d="M225 594c0 25 19 45 43 45 25 0 45-20 45-45 0-23-20-43-45-43-24 0-43 20-43 43z m478 0c0 25 20 45 43 45 24 0 43-20 43-45 0-23-19-43-43-43-23 0-43 20-43 43z m-488 121c-65 0-115-55-115-121l-67-566c0-67 51-122 114-122h707c62 0 113 55 113 122l-67 566c0 66-50 121-115 121z m553 0c-26 110-135 192-266 192s-240-82-266-192h80c24 70 98 123 186 123s162-53 186-123z" horiz-adv-x="1000" />

<glyph glyph-name="paper-plane" unicode="&#xe864;" d="M984 838q19-13 15-36l-142-857q-3-16-18-25-8-5-18-5-6 0-13 3l-253 104-135-165q-10-13-27-13-7 0-12 2-11 4-17 13t-7 21v195l482 590-596-516-221 91q-20 8-22 30-1 23 18 33l928 536q9 5 18 5 11 0 20-6z" horiz-adv-x="1000" />

<glyph glyph-name="attention-alt" unicode="&#xe865;" d="M286 148v-125q0-15-11-25t-25-11h-143q-14 0-25 11t-11 25v125q0 14 11 25t25 10h143q15 0 25-10t11-25z m17 589l-16-429q-1-14-12-25t-25-10h-143q-14 0-25 10t-12 25l-15 429q-1 14 10 25t24 11h179q14 0 25-11t10-25z" horiz-adv-x="357.4" />

<glyph glyph-name="info" unicode="&#xe866;" d="M357 94v-71q0-15-10-25t-26-11h-285q-15 0-25 11t-11 25v71q0 15 11 25t25 11h35v214h-35q-15 0-25 11t-11 25v71q0 15 11 25t25 11h214q15 0 25-11t11-25v-321h35q15 0 26-11t10-25z m-71 643v-107q0-15-11-25t-25-11h-143q-14 0-25 11t-11 25v107q0 14 11 25t25 11h143q15 0 25-11t11-25z" horiz-adv-x="357.4" />

<glyph glyph-name="compare-link" unicode="&#xe867;" d="M311 498h489c36 0 65-30 65-65v-404c0-35-29-65-65-65h-489c-35 0-65 30-65 65v404c0 35 30 65 65 65z m454-94h-419v-346h419v346z m-146 181h-101v44h-417v-336h58v-95h-93c-36 0-66 30-66 65v395c0 36 30 66 66 66h488c36 0 65-30 65-66v-73z" horiz-adv-x="865.2" />

<glyph glyph-name="cat-default" unicode="&#xe868;" d="M199 407c0 166 135 300 301 300s301-134 301-300c0-166-135-301-301-301s-301 135-301 301z" horiz-adv-x="1000" />

<glyph glyph-name="cat-computer" unicode="&#xe869;" d="M305 830c-12-4-24-11-30-17-7-8-13-18-17-29-2-6-2-8-4-49v-43l6-6 15-2c22 0 26 0 28 6 2 4 2 4 2 37s2 35 4 39c0 2 4 6 6 8 1 2 5 4 7 6l4 2h584l4-2c8-4 14-10 16-18 2-6 2-20 2-205v-199l-2-8c-2-6-6-12-14-16l-4-2-250-2c-139 0-250 0-250 0s-2-2-4-4c-2-1-2-1-2-21 0-18 0-21 4-23 2 0 37-2 78-2h75l2-4c1-2 1-4 1-20 0-15 0-15-1-19-4-2-10-4-16-4-4 0-8-2-26-6-11-4-31-10-35-14 0 0-2-2-2-2s-4-2-5-4c-22-17-12-35 29-50 13-4 41-10 70-14 20-2 67 0 84 2 31 4 53 8 65 12 2 2 3 2 3 2 2 0 4 1 4 1 2 0 4 2 4 2 4 0 16 8 22 14 8 8 8 8 8 14 0 11-14 23-45 33-6 4-26 8-37 10-16 2-16 2-16 25 0 16 0 18 2 20s10 2 125 2c84 0 127 2 131 2 23 5 41 21 51 44l1 8v223c0 211 0 221-1 227-8 23-24 37-45 44l-8 4h-309c-285 0-310 0-314-2z m-264-201c-10-2-18-8-23-17-2-4-2-8-2-309v-307l2-4c4-5 9-11 15-15 4-2 6-2 151-2 134 0 144 0 148 2 6 4 10 8 14 11 6 10 6-13 6 311 0 328 2 305-6 317-4 5-6 7-14 11-4 2-6 2-146 2-77 0-143 0-145 0z m268-56c6-4 6-6 6-43 0-38 0-39-8-41-2 0-49 0-127 0h-123l-2 2c-4 1-4 1-4 39v37l6 6h125c84 0 125 0 127 0z m-2-129c8-2 8-4 8-43v-35l-2-4-4-2h-125c-123 0-127 0-129 2l-4 2v35c0 23 0 37 2 39 2 6-4 6 129 6 88 0 121 0 125 0z m-116-254c20-4 34-18 40-35 7-38-26-69-61-61-18 6-31 20-35 39-4 8-4 12 0 22 4 17 17 29 35 35 10 2 14 2 21 0z" horiz-adv-x="1000" />

<glyph glyph-name="cat-couch" unicode="&#xe86a;" d="M340 905c-2 0-4-2-10-2-8-2-21-6-31-8-37-14-72-45-92-78-10-16-17-35-21-51-4-18-4-18-4-102l-2-78h-2c-2 0-8 0-16 0-14 2-25 0-39-4-4-2-21-9-25-11-14-10-28-24-35-37-2 0-6-10-10-20-2-2-4-12-6-20-2-7-2-216 0-224 4-18 8-29 18-41 9-16 23-28 41-37 17-10 31-12 56-14h18l2-127c0-143 0-133 6-139 5-6 5-6 52-6h43l6 4c6 2 12 8 14 12s4 10 6 18c0 2 2 9 4 17s3 16 3 18c2 2 4 10 6 17 2 6 4 14 4 16s0 4 2 8 6 23 8 29c0 0 2 10 4 18s4 15 4 17c2 2 4 10 6 18s4 16 4 18c2 7 5 23 7 27 0 2 2 4 2 6 2 10 6 27 8 29 0 0 59 0 129 0h127l4-10c2-13 4-19 6-25 0-2 2-10 4-14 0-4 2-12 4-15 2-4 2-10 2-12 1-2 1-8 3-12s2-10 4-12c0-2 2-9 4-17s4-16 4-18c0-2 2-8 4-11 0-4 2-10 2-12 2-4 2-6 2-6s2-4 2-6c0-2 2-10 4-18 2-7 4-15 6-17 0-2 2-10 4-18s4-15 4-17c3-18 7-22 17-28l6-4h43c39 0 45 0 49 2s8 8 10 12c1 4 1 10 1 131v127h18c18 0 27 2 41 6 20 6 35 16 49 33 10 10 14 16 21 33 2 4 4 14 6 20 0 2 0 4 2 4 2 2 2 218 0 218s-2 0-2 4c-2 6-4 16-6 20 0 0-2 4-4 8-5 10-9 15-17 25-12 14-22 22-35 27-18 8-33 12-53 10-8 0-14 0-16 0h-2l-2 78c0 59 0 82-1 86 0 4-2 10-2 14-8 35-30 70-57 96-25 23-63 39-92 43-4 0-6 2-6 2 0 2-318 2-318 0z m316-47c14-2 20-4 34-8 27-12 54-37 68-66 6-12 8-22 12-38 2-9 2-15 2-95v-86l-2-2c-20-16-32-33-39-55-4-14-4-16-4-58v-43h-455v41c0 35 0 43-2 48-4 20-10 32-22 47-6 8-14 16-19 20l-2 2v86c0 90 0 88 4 109 3 10 5 14 9 25 14 26 35 47 61 61 14 6 19 8 37 12l12 2h148c133 0 150 0 158-2z m-482-319c8-2 14-4 16-5 0 0 1 0 5-2s18-16 20-22c2-2 4-4 4-6 2-2 4-6 6-15 2-6 2-10 2-59 0-57 0-55 5-63 2-1 6-3 8-5 4-2 12-2 260-2 246 0 254 0 258 2 2 2 6 4 8 5 6 8 6 6 6 63 0 51 0 53 1 61 12 43 59 64 96 44 16-7 29-21 33-37 6-13 6-9 6-115 0-107 0-101-6-115-5-18-21-33-37-39-15-6 10-4-367-4-338 0-348 0-355 2-4 0-8 2-10 2-16 6-33 23-37 39-6 14-6 8-6 115 0 94 0 100 2 106 4 15 8 23 17 33 12 10 20 15 38 19 5 2 19 0 27-2z m148-363c0 0 0-4-2-10-2-4-2-9-4-11 0-2-1-10-3-16-2-8-4-16-4-18 0-4-4-11-6-19-2-6-4-14-4-16s0-6-2-8c0-3-6-23-6-27-2-2-2-6-2-8-2-2-2-6-4-9 0-4-2-10-2-12-2-4-2-6-2-8-2-2-4-8-6-16s-3-15-3-17c-2-10-8-28-8-30 0 0-8 0-20 0h-17v114c0 60 0 111 0 113 0 0 11 0 48 0 41 0 47 0 47-2z m450-111v-114h-18c-12 0-20 0-20 0-2 2-5 16-7 28 0 2-2 9-6 17-2 8-4 18-4 20s-2 6-2 10c-2 6-4 9-4 11s0 6-2 6c0 0 0 2 0 6-2 2-4 10-6 18s-4 15-4 17c0 2-2 10-4 18-4 8-5 15-5 17s-2 6-2 8c-2 10-6 24-6 28-2 2-2 7-4 13-2 4-2 10-2 10s21 0 47 0h49z" horiz-adv-x="1000" />

<glyph glyph-name="cat-garden" unicode="&#xe86b;" d="M840 766c-12-4-18-8-24-18-1-4-1-6-1-54v-51l-4-4c-2-2-6-4-8-6 0 0-18-14-37-29-18-16-37-31-41-35s-8-6-10-8c0 0-8-6-16-14-8-6-27-23-45-37-17-14-33-27-37-29-2-4-6-6-10-8-9-10-11-12-11-10-2 0-2 8-2 24-2 56-4 117-6 144 0 18-2 47-2 63-2 35-2 37-10 45-10 9 10 9-213 9-175 0-199 0-203-2-10-4-17-11-19-23 0-4-2-20-2-37 0-20-2-33-2-33-2-2-14-2-53-2-37 0-53 0-57-2-5-2-11-8-15-16l-2-6v-68c0-65 0-68 2-72 2-6 6-10 13-16 12-8 20-12 20-12 2-2 6-4 10-8 6-1 10-5 11-5 0 0 6-4 10-6 6-4 12-8 16-12 6-2 10-6 12-6 0 0 5-4 9-6 4-4 8-6 10-7l2-2-2-30c-4-88-4-90-4-193 0-100 0-102 2-106 2-5 10-11 16-13s19-2 222-2c247 0 223-2 235 10 8 7 8 11 6 37 0 13 0 52 0 123 0 56-2 111-2 121s-2 21-2 25v10l6 4c7 6 13 12 23 19 4 4 25 22 49 41 23 18 43 36 47 38 2 1 6 5 8 7 3 2 13 12 23 20s27 21 39 31c12 10 22 18 24 20 1 2 11 9 27 21 6 8 8 8 12 8 2-2 5-2 9-2s14-2 20-2c6-2 17-2 25-4 8 0 20-2 28-4 23-2 33 0 43 10 7 8 9 14 9 25 0 14-2 16-41 59-6 6-13 16-19 21-6 6-16 16-20 22-37 39-37 39-43 43-8 4-19 4-25 0z m-311-102c2-15 2-45 2-64 2-20 2-51 4-66 2-73 2-94 4-127 0-20 2-47 2-61 2-16 2-62 2-125v-102h-367v82c0 65 0 86 2 106 0 14 2 31 2 37s0 18 0 25c2 8 2 26 2 40 2 29 4 60 6 101 0 16 2 31 2 35 0 6 0 22 1 37 2 67 4 94 4 100 0 2 0 6 0 8 2 2 18 2 168 2l166-2z m-396-76c0-15-2-70-2-80-2-6-2-17-2-21 0-12 0-12-2-12s-4 0-4 2c0 0-4 2-8 6-6 2-9 6-11 6-8 5-18 11-20 13-2 0-6 2-10 6l-8 6v39c0 22 0 39 0 39s16 2 34 0h35z" horiz-adv-x="1000" />

<glyph glyph-name="cat-gift" unicode="&#xe86c;" d="M361 905c0 0-2-2-4-2-3 0-17-6-25-8-10-6-29-22-33-29-8-16-10-20-10-36 0-17 4-29 16-46 2-6 6-10 6-12 4-4 13-18 25-30 4-3 6-7 6-7s-8 2-16 4c-4 2-8 3-10 3-1 0-7 2-15 6-65 22-135 34-180 36h-17l-4-4c-6-4-10-10-10-18 0-6 2-12 8-16l4-4 25-1c14-2 27-2 31-4 22-2 37-6 47-8 4 0 8-2 10-2 4 0 6-2 19-4 10-2 22-6 34-10 4 0 7-2 11-4 4 0 8-2 10-2 2-2 4-2 4-2 2 0 4 0 6-2 4 0 10-2 14-3 2 0 7-2 11-4 6-2 12-6 14-6s4 0 6-2c0 0 4-2 6-2 4-2 6-2 7-4 2 0 6-2 8-2 4-2 6-4 8-4 6-2 25-10 27-12 8-2-7-2-146-2-164 0-154 0-172-5-17-8-33-24-39-41-4-12-4-14-4-77 0-70 0-68 6-84 6-9 14-17 21-25 8-6 12-8 22-12 8-2 10-2 29-2 14-2 22-2 22-2 0-2 0-97 0-216 0-211 0-217 2-225 4-16 9-26 19-37 10-10 24-20 37-26 12-4 4-4 291-4 233 0 272 0 280 2 13 2 23 8 35 16 13 10 21 22 27 35 8 18 8-2 8 239 0 171 0 214 0 216 2 0 14 2 33 2 33 0 35 0 49 6 6 4 18 14 23 20 6 6 14 21 14 29 2 2 2 4 4 4s2 127 0 127c-2 0-2 2-4 6 0 6-8 21-14 27-11 12-25 22-41 25-9 2-11 2-156 2-140 0-156 0-148 2 2 2 21 10 27 12 4 2 20 8 23 10 2 0 6 2 8 2 2 2 6 4 10 4 4 2 10 4 14 6 8 2 35 11 41 13 2 0 8 2 10 2 17 6 33 10 60 16 25 6 55 10 86 12 20 1 20 1 23 5 6 4 8 10 8 16 0 8-2 14-10 18l-3 4h-20c-10 0-23-2-31-2-24-4-39-6-55-10-4 0-10-2-16-4-7-2-15-4-25-6-17-4-25-8-31-8-4-2-10-4-16-6s-11-4-13-4c-2 0-4-2-6-2s-8-1-14-3c-4-2-10-4-10-4-2 0 2 4 6 7 20 24 37 49 41 67 6 16 6 33 0 45-6 15-23 33-39 41-2 0-6 2-6 2-4 2-13 6-17 6-2 0-4 2-4 2-2 2-28 2-28 0 0 0-2 0-4-2-3 0-9-2-17-6-16-8-33-26-47-47-12-18-29-57-35-76 0-2 0-4-2-6 0-2-2-6-2-10-2-2-2-6-4-6 0 0-4 8-6 18-6 17-10 25-12 31-1 0-1 2-1 4 0 0-12 25-18 35-20 31-37 51-59 59-6 2-9 4-11 4s-4 2-6 2c0 2-26 2-26 0z m24-45c19-6 39-32 56-73 4-11 4-15 8-21 0-4 2-8 2-10 4-8 10-31 12-43 2-4 4-12 4-13 2-8 2-12 0-12 0 0-6 4-8 4 0 0-2 2-6 4-4 4-17 13-19 15 0 0-2 2-6 6-18 14-49 41-67 59-4 6-15 21-15 23 0 0-2 2-4 4-6 8-10 18-10 27 0 10 2 14 10 20 12 10 31 16 43 10z m250 0c12-4 23-10 27-18 4-6 4-12 2-19-8-26-33-55-88-100-11-10-45-35-47-35s-2 0-2 2c2 2 2 4 2 6 2 7 4 17 6 23 0 4 2 10 4 16 2 4 2 7 4 9 0 2 0 4 0 6 2 4 4 10 6 14 2 10 10 29 17 45 14 27 30 47 45 53 6 2 16 2 24-2z m-158-321c0-56 0-80 0-80-2-2-32-2-184-2-131 0-184 0-187 2-8 0-12 4-18 10-8 10-8 6-8 70 0 55 0 55 2 61 4 8 10 14 20 17 4 2 17 2 189 2h186z m420 78c7-1 17-11 19-17s2-12 2-63v-54l-4-6c-4-10-12-16-21-18-6-2-371-2-371 0 0 0-2 137 0 158 0 2 37 2 185 2 174 0 186 0 190-2z m-420-203c2-2 2-461 0-463 0 0-61 0-133 0-129 0-131 0-135 2-12 6-21 16-25 26-2 6-2 21-2 221 0 117 0 214 2 214 0 2 293 2 293 0z m316-216v-217l-2-6c-4-10-12-16-19-20l-8-4h-121c-67 0-121 0-121 0-2 2-2 461 0 463 0 0 52 0 136 0h135z" horiz-adv-x="1000" />

<glyph glyph-name="cat-shirt" unicode="&#xe86d;" d="M252 787c0-2-41-21-90-46-49-26-90-45-92-45 0-2-5-4-11-8-8-2-14-6-14-6-2 0-4-2-8-4s-6-4-10-6c-2 0-4 0-4-2-9-4-17-8-21-13-2-4-2-6-2-12 0-4 0-10 2-12 0 0 8-12 16-23 7-12 13-24 15-24 0-2 4-6 6-10 4-5 6-9 6-9s2-4 4-6c2-2 4-4 4-4s2-4 2-6c2-2 4-4 4-4s2-4 4-6c2-2 3-4 3-4 0-2 0-3 2-5s4-4 4-6 53-76 55-78c2-2 6-4 10-6s6-2 23 4c2 0 6 2 10 4 4 0 10 1 12 1 2 2 8 4 11 4 4 2 8 2 10 4 4 0 8 2 12 2 4 2 8 4 12 4 2 2 5 2 5 2h4v-426l4-4c2-3 4-5 8-9l4-2h494l4 2c4 4 6 6 8 9l2 4 2 213v213h2c2 0 6 0 8-2 1 0 7-2 11-4 4 0 8-2 10-2 4-2 8-2 12-4 4 0 10-2 11-4 2 0 8-1 12-1 2-2 8-4 10-4 18-6 18-6 23-4 4 2 8 4 10 6s47 64 47 68c2 2 2 4 4 6s4 4 4 4c0 2 2 4 4 6s2 3 2 5c0 0 2 2 4 4s4 6 4 6c0 0 1 2 1 4 2 2 4 6 4 6s2 2 4 4c2 4 4 6 4 6s0 2 2 6c2 2 4 3 4 3s8 14 18 28c11 15 19 29 19 29s0 2 2 2 2 2 2 10c0 6 0 8-2 8 0 0-2 2-2 2-2 4-12 11-14 11-1 0-1 2-3 2 0 2-2 2-4 2 0 0-2 2-2 2-2 0-2 2-4 2s-2 0-2 0c-2 2-4 2-6 4-4 2-6 4-8 4 0 0-2 2-4 2 0 0-2 0-2 2-2 0-6 2-9 4-6 2-10 4-12 6 0 0-41 19-90 45-51 25-90 44-90 46 0 0-15 0-74 0-65 0-74 0-74 0 0-2-2-2-2-3-2 0-4-2-6-4-6-6-8-10-8-20 0-19-10-39-25-57-10-9-22-15-35-19-10-4-38-4-45 0-26 6-47 25-57 51-2 7-4 19-4 25s-2 10-2 12-8 12-12 12c-2 1-2 1-2 3 0 0-11 0-74 0-58 0-74 0-74 0z m119-50c0-2 2-4 2-6 0-4 8-26 12-33 2-2 4-4 4-4 4-8 21-28 33-35 19-16 37-22 62-26 14-2 16-2 30 0 8 2 15 2 15 2 0 2 2 2 6 2 10 2 30 12 41 20 12 9 30 29 33 37 2 2 4 6 4 7 4 2 12 22 12 30 2 4 2 6 2 8 2 0 12 0 53 0h52l63-32c35-17 64-31 64-33 2 0 4 0 4 0 0-2 2-2 4-2 0 0 2-2 2-2 2 0 4-2 4-2 2 0 2-2 4-2 0 0 2 0 4-2s6-2 14-5c3-4 9-6 9-6 2 0 10-4 18-10 18-8 19-10 16-12-2-2-2-2-2-4 0 0-2-2-4-4s-2-6-2-6c0 0-2-1-4-3-2-4-4-6-4-6s-2-2-4-6c0-2-2-4-2-4s-2-2-4-6c-2-2-4-4-4-4 0-2-2-6-6-10-2-3-5-9-5-9 0-2-2-4-4-6s-4-4-4-6c0 0-10-14-22-31-15-24-21-32-23-32 0 0-4 0-6 2-2 0-8 2-10 2-4 2-10 4-12 4-1 0-7 2-11 4-4 0-8 2-12 2-2 2-6 4-10 4-15 4-17 6-19 6-2 2-2 4-2 19-2 10-2 18-2 20-2 2-4 6-6 8-10 10-23 10-33 0-2-2-6-6-6-8-2-4-2-63-2-242 0-131 0-239 0-240v-2h-428v2c0 1 0 109 0 240 0 179-2 238-2 242 0 2-4 6-6 8-9 10-25 10-33 0-2-2-4-6-6-8 0-2-2-10-2-20 0-15 0-17-2-19-2 0-3-2-19-6-4 0-8-2-12-4-2 0-6-2-10-2-3-2-9-4-11-4s-8-2-12-4c-4 0-8-2-10-2-2-2-6-2-6-2-2 0-11 14-37 51-19 30-35 53-35 53 0 2-4 6-8 10-2 6-6 9-6 9s-2 4-2 6c-1 2-3 4-3 4 0 2-2 2-2 4-2 2-2 4 0 6 2 0 29 14 33 16 0 0 6 2 10 6 3 1 9 3 9 3s2 2 4 2c0 0 2 2 2 2 2 0 4 2 4 2 2 0 2 0 4 2 0 0 2 0 4 0 0 2 2 2 2 2 2 2 4 2 4 2s2 2 4 2c0 0 2 2 2 2 2 0 29 14 62 31l61 30h103z" horiz-adv-x="1000" />

<glyph glyph-name="cat-sport" unicode="&#xe86e;" d="M260 905c-2 0-4-2-6-2-33-4-64-32-74-65-18-51 13-105 66-121 6-2 10-2 24-2 15 0 19 0 25 2 31 8 53 29 66 61 2 7 4 15 4 31 0 17 0 19-6 33-5 18-17 33-31 43-12 10-25 16-41 18-4 2-6 2-6 2 2 2-21 2-21 0z m19-57c8-2 16-8 22-14 4-6 6-9 8-17 4-18-4-33-20-43-8-4-8-4-19-4-8 0-12 2-16 4-10 4-18 13-22 25-1 8-1 12 0 22 4 13 14 23 30 27 8 2 10 2 17 0z m391-10c-22-4-27-4-49-10-14-3-17-3-29-9-6-2-12-4-14-4s-4-2-4-2c0 0-2-2-2-2-2 0-9-4-21-8-16-8-24-14-43-25-4-2-18-12-18-12s-4-2-8-6c-5-4-19-16-25-19-27-26-51-49-68-75-8-9-22-31-22-31s0-2-2-4c-8-12-21-39-27-56-2-2-4-6-4-8-2-2-10-28-10-32 0-1-2-7-4-13-5-24-7-39-9-59 0-8 0-15-2-17 0-2 0-6 0-10 0-2 0-10-2-18 0-8-2-23-4-33 0-10-2-23-2-29s-2-14-2-18c0-4 0-13-2-21 0-10-2-24-2-33-2-10-2-24-4-30 0-8 0-17-2-21v-8l-223-223h-5c-14 0-22-6-26-15-6-8-4-20 2-28 4-8 47-49 53-51s17-2 23 0c6 4 8 6 12 12 2 4 2 4 2 14v10l27 27c36 35 164 162 180 178 10 8 16 13 18 13s5 2 11 2c26 2 51 4 65 6 8 0 17 0 21 0 2 0 12 2 18 2 8 2 25 2 39 4 14 0 29 2 37 4 8 0 18 0 20 0 3 0 7 2 11 4 6 2 10 2 20 2 19 2 39 6 68 12 6 2 20 7 33 11 24 10 53 24 78 41 10 6 32 22 40 28 11 11 17 15 27 25 25 25 47 51 68 86 12 18 26 47 35 70 4 14 6 16 8 22 0 2 2 8 2 10 2 5 4 13 6 27 4 10 6 27 6 41 2 14 2 19 4 17 0-1 0 2 0 6 0 6 0 8 0 6-2-2-2 4-4 20-2 41-18 86-41 121-24 35-55 64-92 82-4 2-8 4-8 6-4 2-21 8-31 9-20 6-27 8-47 12-21 2-55 2-76 0z m107-64c18-6 34-12 47-22 2-2 6-6 6-6 2-2-6-9-25-27-14-16-28-27-28-27-2 0-7 4-27 25-16 14-25 25-25 25 0 2 6 10 15 20l18 16h4c4 0 10-2 15-4z m-146-18c6-6 12-12 12-12 0-2-53-52-53-52-2 0-45 41-45 43s4 4 25 13c18 10 41 20 45 20 2 0 4-2 16-12z m248-58c6-8 16-28 18-36 1-5 3-11 7-25l2-4-6-6c-11-11-29-29-31-29 0-2-53 51-53 53 0 0 55 54 57 54 0 0 2-4 6-7z m-170-22c14-14 25-25 25-25 2-2-44-49-50-53-2-2-4 2-28 25-13 14-25 26-25 28s49 50 51 50c2 0 13-9 27-25z m-186 0c14-14 26-25 26-25 0-2-12-14-27-28-22-23-26-25-28-25-4 2-49 47-49 49 0 4 49 53 53 53 0 0 12-10 25-24z m282-94c13-13 25-25 25-25s-14-14-27-27l-28-28-25 28c-14 13-25 25-25 27 0 0 11 14 25 27 20 20 25 26 27 24 0 0 14-12 28-26z m-188 0c20-19 26-25 24-27 0-2-49-51-51-51-4 0-53 51-53 53s49 51 53 51c0 0 10-8 27-26z m-187-52c-14-14-28-26-28-26-2 0-21 20-21 24 0 6 23 62 31 70 0 2 2 0 22-20l21-21z m93-41l26-26-26-25c-13-16-27-28-27-28-2 0-53 51-53 53 0 0 12 14 26 28 21 21 25 25 27 25 2-2 14-14 27-27z m186 2c16-14 27-28 27-28 0-2-52-53-54-53s-51 51-51 53c0 2 51 53 53 53 0 0 11-12 25-25z m172 15c16-15 14-14 12-23-8-22-28-61-32-63-2 0-9 8-23 22-20 17-22 21-20 23 0 2 49 51 51 51s6-4 12-10z m-451-109c23-24 25-28 23-30-4-3-47-46-49-46s-15 21-21 37c-4 8-10 25-10 31v6l14 14c8 7 13 13 15 13 0 0 14-12 28-25z m185 0c16-14 28-28 28-28 0-2-53-52-53-52-2 0-53 50-53 52s51 53 53 53c0 0 12-12 25-25z m188 0l23-24v-4c-4-3-33-33-43-41-4-5-10-7-10-7-1 0-48 46-48 48s48 53 50 53c2 0 14-12 28-25z m-280-94l26-27-14-14-15-16-10 2c-20 6-22 6-35 12-8 6-24 14-28 18 0 0-2 2-2 2 2 2 49 48 51 48 0 0 14-11 27-25z m180 6c16-16 22-22 22-22-2-5-51-29-69-31l-6-2-9 10c-6 6-10 12-10 12 0 2 49 52 51 52s11-9 21-19z m-346-20c12-17 34-41 55-56 4-4 8-6 8-8 0 0-2 0-6 0-2 0-10-2-16-2-5 0-17-2-27-2-8 0-17-2-19-2h-6v6c0 6 0 14 4 53 2 9 2 15 4 15 0 0 2-2 3-4z" horiz-adv-x="1000" />

<glyph glyph-name="cat-toys" unicode="&#xe86f;" d="M260 721c-20-4-51-14-59-18-2 0-6-2-10-5-23-10-46-28-64-45-16-18-29-37-39-59-4-8-14-31-18-39-2-8-5-14-5-18-2-2-2-3-2-3 0-2 0-4-2-6 0-2-4-10-6-16-8-25-10-33-14-53-2-4-2-9-4-13 0-4-2-10-4-16 0-4-2-12-2-16-4-13-6-29-9-54-10-55-10-119-4-157 5-33 13-56 27-76 10-15 25-27 41-33 12-4 18-6 35-6 26 0 37 4 69 16 13 6 31 15 48 25 16 10 37 26 51 37 16 10 37 26 39 26 0 0 4 2 8 6 4 2 14 5 20 9 5 2 11 6 13 6 0 0 2 2 4 2s6 2 10 4c74 29 158 29 232 0 4-2 8-4 10-4s4-2 4-2c2 0 10-4 18-8 7-4 15-9 19-9 2-2 4-4 4-4 2 0 20-14 39-28 18-11 27-19 47-31 6-4 8-6 12-8 17-9 37-19 39-19s2 0 2-2c2 0 6-2 17-6 22-8 33-10 51-10 27 0 47 8 64 26 10 9 20 25 22 31 4 12-4 25-16 27-11 4-19-2-27-12-4-7-14-15-18-19-13-8-35-8-58 0-6 2-28 12-33 14-12 5-20 11-26 15-4 2-10 6-13 8-4 2-18 12-30 22-21 15-43 31-47 33-2 0-4 2-5 2-4 2-36 19-43 21-12 6-36 14-49 18-4 2-10 2-14 4-2 0-6 2-8 2 0 0-4 0-10 0-21 5-31 5-66 5s-45 0-68-5c-4 0-8 0-10 0s-6-2-8-2c-4-2-10-4-12-4-7-2-27-8-33-10-2-2-6-2-8-4-4 0-5-2-7-4-24-10-34-14-51-25-16-8-22-14-47-31-12-10-22-18-24-18 0 0-5-4-9-6-6-4-12-8-14-10-4-2-8-4-10-4-9-7-33-17-45-21-23-8-45-8-58 0-31 19-43 92-31 191 3 30 11 77 15 94 2 4 2 6 2 8s0 4 2 8c0 2 2 8 4 11 2 8 2 14 6 26 4 13 6 17 10 31 2 6 3 14 5 16 0 2 2 6 2 9 2 4 4 8 4 10 4 8 16 31 20 41 2 2 4 6 4 6 2 4 17 24 23 29 10 10 20 20 33 28 6 4 32 17 34 17 0 0 3 0 5 0 2 2 6 4 26 8 12 2 55 2 66 0 24-6 33-10 59-21 10-6 19-10 23-12 35-12 39-12 90-12 45 0 49 0 67 4 9 4 27 10 31 12 0 0 10 4 19 10 10 4 18 7 20 7 4 2 23 8 35 12 12 2 57 2 68 0 16-4 22-6 26-8 8-2 21-7 23-9 0 0 4-2 6-2 10-6 25-18 37-30 14-13 22-23 33-41 4-8 14-31 22-49 0-1 2-5 2-5 0-2 2-6 2-8 0 0 4-8 6-14 2-8 3-14 3-16 2-1 2-5 4-9 2-12 6-22 8-32 2-3 2-11 4-15 8-29 16-74 20-111 2-14 4-49 4-75 0-9 2-11 3-15 8-14 24-16 36-4 7 6 7 10 5 45 0 50-5 95-21 164-2 6-4 11-4 13 0 4-2 6-2 8 0 0 0 4-2 6 0 4-2 8-2 12-4 10-6 19-8 23 0 2-2 10-3 16-4 12-6 14-10 25 0 2-2 6-2 10-2 2-4 6-4 8 0 4-2 6-4 8 0 2-2 4-2 4 0 2-14 31-18 37-11 21-31 45-50 60-12 10-26 20-35 24-2 2-6 4-6 4-2 2-26 11-36 13-7 2-19 6-33 8-4 2-17 2-31 2-19 2-27 2-37 0-16-2-31-6-43-10-10-6-14-6-31-15-22-10-28-12-37-16-20-6-18-6-63-6s-41 0-62 6c-10 4-16 6-36 16-23 11-23 11-37 15-11 4-23 6-39 10-11 2-51 2-64 0z m435-137c-13-6-21-15-25-35-2-8 4-21 12-29 9-10 23-14 37-10 15 6 27 20 27 37 0 16-10 28-23 35-8 4-20 4-28 2z m-416-2c-6-2-11-6-13-11-2-4-4-8-4-43v-39h-39c-22-2-41-2-43-2 0-2-4-4-6-4-16-14-8-39 12-41 4 0 21 0 41 0 17 0 33 0 35 0 0 0 0-10 0-39 0-39 0-41 4-45 4-10 15-16 25-12 6 0 12 6 16 12l2 6v39c0 21 0 39 2 39 0 0 17 0 39 0h41l4 4c5 4 11 11 11 17 0 10-8 20-15 24-2 0-22 0-43 0l-39 2v39c0 35 0 39-2 43-6 9-18 15-28 11z m332-82c-19-8-29-27-23-47 2-5 8-15 16-19 19-14 46-6 56 16 4 7 4 21 0 29s-12 15-19 19c-8 4-22 6-30 2z m170 2c-9-4-21-13-21-17 0 0-2-2-2-2-2-2-6-14-6-18 0-6 2-14 6-19 6-10 19-20 31-20 22 0 39 18 39 39 0 14-10 29-25 35-4 2-18 2-22 2z m-88-86c-5-2-15-9-17-15-6-10-8-18-6-28 6-21 27-35 49-27 17 4 27 18 27 35 0 16-8 28-21 35-8 2-10 2-18 2-6 0-10 0-14-2z" horiz-adv-x="1000" />

<glyph glyph-name="tag-line" unicode="&#xe870;" d="M929 349l-475-475c0-1-1-2-2-3-4-4-9-6-15-6-5 0-10 2-14 6-1 1-2 2-2 3l-350 349c-1 1-2 1-3 2-4 4-6 10-5 15-1 5 1 11 5 15 1 1 2 1 3 2l475 475c4 5 10 8 16 8h1c0 0 0 0 0 0h84c3 31 16 59 35 77v-1c4 5 10 7 16 7 12 0 22-10 22-24 0-7-4-14-9-18-10-10-17-24-19-41h99c0 0 0 0 0 0h1c6 0 12-3 16-8l121-122c5-4 8-9 8-16v0c0 0 0 0 0-1v-228c0 0 0 0 0 0v0c0-7-3-12-8-16z m-215 148c-4-4-10-7-16-7-12 0-22 11-22 24 0 8 3 14 9 18 5 5 9 12 13 19-18-5-31-21-31-40 0-23 18-42 41-42s42 19 42 42c0 10-4 19-9 26-13-33-27-40-27-40z m182 89l-112 112h-88c4-9 9-17 15-23v0c1 0 2-1 3-2v1c22-21 36-52 36-89 0-1 0-2 0-2 25-15 42-41 42-72 0-46-38-84-84-84s-83 38-83 84c0 44 35 81 80 83-2 18-10 34-20 44-1 0-2 1-3 2v-1c-16 15-27 35-33 59h-79l-458-458 325-326 459 459v213z m-598-310c8 8 20 8 28 0l147-147c8-8 8-21 0-29s-21-8-29 0l-146 147c-8 8-8 21 0 29z m83 83c8 8 21 8 29 0l147-147c7-8 7-21 0-29-8-8-21-8-29 0l-147 147c-8 8-8 21 0 29z" horiz-adv-x="1000" />

<glyph glyph-name="bag" unicode="&#xe871;" d="M386 844c-119 0-215-95-215-213v-15h-148c-1 0-1 0-2 0-12-1-21-11-21-22v-616c0-74 60-134 134-134h504c73 0 134 60 134 134v616c0 12-11 22-23 22h-148v15c1 118-95 213-215 213z m0-46c96 0 171-74 171-167v-15h-341v15c0 93 75 167 170 167z m-340-227h681v-593c0-50-39-89-88-89h-504c-50 0-88 40-88 89l-1 593z m147-57c-25 0-45-20-45-45s20-46 45-46 46 21 46 46-21 45-46 45z m387 0c-25 0-46-20-46-45s21-46 46-46 45 21 45 46-20 45-45 45z" horiz-adv-x="772.5" />

<glyph glyph-name="search-1" unicode="&#xe872;" d="M987-71l-355 356c44 58 70 131 70 209 0 193-157 350-350 350s-350-157-350-350 157-350 350-350c79 0 151 26 209 70l356-355c19-20 51-20 70 0 20 19 20 51 0 70z m-635 315c-138 0-250 112-250 250s112 250 250 250 250-112 250-250-112-250-250-250z" horiz-adv-x="1002" />

<glyph glyph-name="plus" unicode="&#xe873;" d="M911 456v-223h-335v-336h-223v336h-335v223h335v335h223v-335h335z" horiz-adv-x="927.7" />

<glyph glyph-name="minus" unicode="&#xe874;" d="M18 233v223h893v-223h-893z" horiz-adv-x="927.7" />

<glyph glyph-name="search-2" unicode="&#xe875;" d="M357 846c-1 0-7-2-13-2-29-4-37-6-65-14-21-7-45-17-62-29-2-2-6-4-8-4 0 0-4-2-6-4-4-4-6-4-6-4-2 0-9-7-25-19-12-10-33-31-43-43s-14-20-14-20c0 0-2-4-4-6-2-3-4-5-4-7-1 0-3-4-3-6-4-4-20-35-22-43-4-8-12-31-14-41-2-8-3-16-9-47-2-16-2-51 0-68 7-39 6-38 13-61 2-10 8-23 14-37 2-4 4-8 4-10 2-2 4-8 8-14 27-50 74-97 125-126 25-14 39-20 72-30 6-2 18-4 41-8 18-3 72-3 90 0 23 4 35 6 41 8 19 6 25 8 27 10 2 0 6 2 10 4 8 2 31 14 35 17 2 0 6 2 10 4 2 4 6 4 6 4s25 18 29 22c2 2 8 6 12 10 4 3 6 7 8 7 0 0 19 22 27 30 4 6 21 29 21 29 0 2 2 4 4 8 6 10 8 10 14 23 6 12 8 18 14 31 2 4 4 14 7 28 2 6 6 17 10 41 2 17 2 68 0 90-6 37-17 74-31 99-14 24-18 32-31 51-20 23-41 45-65 63-9 7-27 17-29 19-2 0-4 2-4 2-14 8-45 23-64 29-18 6-30 8-63 12-12 2-51 4-57 2z m51-86c26-4 41-8 67-18 31-13 64-37 84-60 7-8 23-27 23-31 0 0 2-4 4-6 4-6 16-28 18-35 11-32 13-49 15-78 0-24-2-47-6-65-6-16-7-27-9-27 0-2 0-2 0-4 0-4-26-51-32-57 0 0-4-2-6-6-7-9-25-27-35-35-11-10-29-21-45-29-56-27-117-31-177-14-18 6-39 16-49 22-4 2-6 4-8 4-6 4-31 23-41 35-10 10-29 33-29 35 0 0-2 2-4 6-4 8-16 27-18 37-2 2-4 8-6 12s-4 13-7 27c-2 10-4 37-4 49 0 13 2 43 4 51 1 3 3 9 3 15 4 16 16 41 24 55 2 2 4 4 4 6 4 8 17 27 33 43 14 13 37 31 51 37 0 2 4 4 8 6 37 21 91 31 138 25z m285-476c-5-10-43-47-62-65-8-6-14-10-14-12 0 0 53-52 117-117 123-125 122-121 139-127 12-4 24-2 35 4 26 10 41 41 33 65-5 17-1 13-125 138-66 65-119 117-119 117-2 0-4-2-4-3z" horiz-adv-x="1000" />

<glyph glyph-name="bag-1" unicode="&#xe876;" d="M397 844c-6-2-12-4-12-4-2 0-6-2-8-4-10-4-21-15-29-23-6-8-16-28-16-31 0 0-2-4-2-10-2-6-2-20-2-74v-69h-148l-2-2c-2-4-4-54-4-82 0-11-2-37-2-56-2-22-2-49-2-61s-2-37-2-57c-2-21-2-46-2-60 0-12-2-37-2-59-2-19-4-45-4-56 0-14 0-39-2-59 0-20-2-47-2-59 0-11 0-39-2-58 0-20-2-41-2-49v-12h346c324 0 346 0 346 2s0 24-2 49c0 25-2 53-2 63 0 9 0 33-2 52 0 20-2 45-2 55 0 12 0 37-2 59-2 19-2 45-2 54 0 12-2 37-2 57-2 19-2 45-2 55 0 11-2 37-2 56-2 20-2 47-2 59s-2 41-4 64l-2 45h-148v67c0 54 0 68-2 76-6 25-16 41-33 54-8 6-12 8-22 14-2 0-7 2-11 4-10 2-16 2-104 2-86 0-94 0-101-2z m193-66c2-2 6-6 8-8l6-8v-133l-106 2h-105v61c-2 72 0 74 7 82l8 6h88c82 0 90 0 94-2z" horiz-adv-x="1000" />

<glyph glyph-name="online-support" unicode="&#xe877;" d="M520 867c-254 0-352-164-360-320v-135c-13-15-19-35-19-62 0-45 29-84 72-94 53-135 139-310 287-310 80 0 143 52 190 121h-51c-45-55-90-80-141-80-96 0-178 95-254 297l-4 11-11 2c-28 0-49 24-49 53 0 12 2 21 6 29l66-31c6-2 14-2 20 2 5 4 7 10 7 17v143c14 0 51 2 112 16 64 15 136 43 187 91 53-70 123-97 143-103v-147c0-7 2-13 8-17 5-4 13-4 19-2l31 16v-67c-2 0-6 0-9 0l-12-2-4-11c-20-53-41-98-61-135 24 4 47 13 63 31 12 25 21 53 33 76 4 2 8 4 12 4v-14c0-66-53-119-121-119h-84c-8 22-30 39-57 39h-39c-33 0-60-27-60-60 0-31 27-59 60-59h39c27 0 49 16 57 39h84c90 0 160 73 160 160v20c33 0 60 27 60 60v81c0 33-27 60-60 60v80c-8 176-106 276-272 279l-41 41z m-8-41l41-39h8c199 0 236-150 240-240v-80c-2 0-2 0-2 0-12-2-20-10-20-21v-37l-19-10v127c0 9-6 17-14 19 0 0-99 31-148 112-4 7-12 9-20 9-6 0-10-4-13-7-40-47-116-79-182-94-68-16-125-18-125-18-10-2-18-10-18-21v-127l-43 19v129c14 201 168 278 315 279z m308-400h20c12 0 19-8 19-19v-81c0-11-7-19-19-19h-16c-2 0-4 0-4 0v88c0 2 0 4 0 6z m-320-299h39c12 0 22-10 22-21 0-10-10-20-22-20h-39c-12 0-19 10-19 20 0 11 7 21 19 21z" horiz-adv-x="1000" />

<glyph glyph-name="shopping-bag" unicode="&#xe878;" d="M500 813c-86 0-156-71-156-156v-32h-154l-2-29-32-562-2-34h692l-2 34-31 562-2 29h-155v32c0 85-70 156-156 156z m0-63c51 0 94-43 94-93v-32h-188v32c0 50 43 93 94 93z m-252-187h96v-94h62v94h188v-94h62v94h96l27-500h-558z" horiz-adv-x="1000" />

<glyph glyph-name="us-dollar" unicode="&#xe879;" d="M500 887c-266 0-480-215-480-480 0-266 214-481 480-481s481 215 481 481c0 265-215 480-481 480z m0-41c244 0 440-195 440-439 0-245-196-440-440-440s-439 195-439 440c0 244 195 439 439 439z m-18-139v-56c-113-6-132-90-132-127 0-190 273-90 273-231 0-17-4-97-121-97-4 0-125-2-121 125h-43c4-135 90-153 144-159v-56h40v56c134 10 142 112 142 131 0 180-273 88-273 225 0 47 17 99 111 99 96 0 107-74 109-109h43c4 57-37 139-132 143v56z" horiz-adv-x="1000" />

<glyph glyph-name="shipped" unicode="&#xe87a;" d="M47 764c-14-6-27-20-33-35l-4-6v-268c0-255 0-269 4-275 6-20 17-31 37-39 6-2 12-2 53-2 33 0 44 0 44-2 2 0 2-4 2-6 2-14 16-39 26-49 8-9 19-21 23-23 2 0 4-2 6-2 4-2 6-4 6-4 2 0 4-2 6-2 4-2 8-4 10-4 17-8 58-8 78 0 2 0 6 2 8 4 2 0 5 2 5 2 2 0 4 2 6 4 2 0 6 2 6 2 6 2 18 14 26 23 9 10 21 35 23 49 2 2 2 6 4 6 2 2 293 2 295 0 2 0 2-4 2-6 4-14 15-39 25-49 8-9 20-21 26-23 0 0 1-2 5-2 2-2 4-4 6-4 0 0 4-2 6-2 10-6 14-6 22-8 11-4 39-4 50 0 10 2 12 2 22 8 2 0 6 2 6 2 2 0 4 2 6 4 3 0 5 2 7 2 4 2 16 14 24 23 10 10 23 35 25 49 0 8 2 8 18 8 15 0 27 2 31 6 0 2 2 2 4 2s19 19 19 21c0 0 2 2 2 2 2 2 4 6 4 10 2 6 2 14 2 113 0 74 0 110 0 112-2 4-2 7-4 9 0 8-4 16-9 28-8 13-8 13-16 27-10 14-86 117-94 125s-21 18-23 20c-2 0-4 2-6 3-2 2-6 2-6 4-2 0-4 0-4 2-2 0-8 2-12 4-7 2-11 2-99 2-51 0-94-2-96-2s-2 0-2 49c-2 37-2 49-4 51 0 4-2 8-4 10-2 7-15 19-21 23-18 8 8 6-277 6-256 0-260 0-266-2z m519-39c4-2 12-10 12-14 0-2 2-123 0-267v-266h-97c-67 0-98 0-98 2-2 0-2 4-4 6 0 14-14 37-23 49-8 9-20 19-26 21 0 2-4 2-6 4s-4 4-6 4c0 0-3 2-5 2-2 2-6 4-8 4-20 8-59 8-78 0-2 0-6-2-8-4-4 0-6-2-8-2 0 0-2-2-6-4-2-2-4-2-6-4-4-2-15-12-23-21-10-12-24-35-26-49 0-2 0-6-2-6 0-2-9-2-41-2-39 0-41 0-46 4-4 2-6 4-8 8l-4 6 2 259c0 246 0 258 2 262 0 4 4 6 6 8 4 2 15 2 254 2 214 0 250 0 253-2z m151-231c0-97 0-101 6-107 0-2 2-2 2-4s19-21 21-21c0 0 2 0 4 0 6-6 8-6 106-8h95v-158l-4-6c-2-2-6-6-7-8-4-4-6-4-16-4-12 0-14 0-14 8-2 14-15 37-25 49-8 9-20 19-24 21-2 2-4 2-7 4-2 2-4 4-6 4 0 0-4 2-6 2-2 2-6 4-8 4-19 8-59 8-78 0-2 0-6-2-8-4-2 0-6-2-6-2-2 0-4-2-6-4-4-2-5-2-5-4-6-2-18-12-26-21-10-12-23-35-25-49 0-2 0-6-2-6 0-2-12-2-30-2h-29v395l4 3c2 4 6 8 8 10l6 4h80z m92 92c9-6 21-13 31-23 6-8 35-47 45-61 2-4 6-6 6-6s2-4 4-5c2-4 3-8 5-10s6-6 8-8c2-4 6-8 6-10 4-4 12-13 16-19 2-4 4-8 10-16 3-8 7-19 7-29v-6h-86l-88 2-5 2c-2 2-6 6-8 10l-4 3v90c0 49 0 88 0 88 2 2 12 2 23 2 22 0 22-2 30-4z m-526-351c30-8 51-30 59-59 2-8 2-27 0-35-8-29-29-51-59-59-8-2-27-2-35 0-29 8-51 30-58 59-2 8-2 27 0 35 3 18 15 35 27 43 8 6 23 14 27 14 2 0 4 2 8 2 4 2 21 2 31 0z m530 0c17-4 35-16 43-28 11-15 17-31 17-48 0-32-17-57-45-71-12-6-19-8-33-8-31 0-57 18-70 45-6 12-8 20-8 34 0 31 17 56 45 70 6 2 10 4 11 4 2 0 4 2 8 2 6 2 22 2 32 0z m-358 396c-2-2-8-6-10-10-4-2-9-9-17-17-10-12-14-16-26-29-4-4-9-12-15-18-6-4-12-12-12-14-4-4-8-8-27-27-8-10-16-18-18-20-10-9-14-15-23-27-14-14-18-18-20-18 0 0-4 2-6 4-4 4-8 8-9 10-2 2-4 4-6 4-2 2-8 8-26 23-2 2-4 4-6 4 0 2-5 6-11 12-6 4-12 10-14 10-8 8-23 21-23 21-2 0-4-2-14-15-10-10-12-14-12-14 0-2 2-4 24-21 7-8 17-18 21-22 2 0 8-6 14-10 6-6 12-11 12-11s7-6 17-14c8-8 16-16 18-18 7-7 23-21 25-21 0 0 2 4 4 6 4 2 6 6 8 8s10 9 17 17c16 18 22 26 26 29 2 2 10 10 17 18 16 18 22 25 28 29 2 2 7 10 15 20 14 14 24 25 32 31 2 2 7 10 13 18 6 6 16 15 18 19 15 14 19 22 19 24 0 0 0 2 0 2s-7 5-13 11c-6 6-14 12-14 12-2 0-4-2-6-6z" horiz-adv-x="1000" />

<glyph glyph-name="list" unicode="&#xe87b;" d="M55 852h890v-207h-890z m0-348h890v-205h-890z m0-336h890v-207h-890z" horiz-adv-x="1000" />

<glyph glyph-name="money" unicode="&#xe87c;" d="M500 860c63 0 121-12 178-35 54-24 103-55 144-96 41-43 73-90 98-147 23-54 35-113 35-175 0-63-12-123-35-178-25-55-57-104-98-145s-90-74-144-97c-57-24-115-36-178-36-62 0-121 12-178 36-54 23-103 56-144 97s-72 90-98 145c-23 55-35 115-35 178 0 62 12 121 35 175 26 57 57 104 98 147 41 41 90 72 144 96 57 23 116 35 178 35z m0-852c55 0 107 10 154 31 49 22 92 49 127 86 37 35 65 78 86 125 20 49 31 102 31 157 0 54-11 105-31 154-21 49-49 90-86 127-35 35-78 64-127 84-47 21-99 31-154 31s-107-10-154-31c-49-20-92-49-127-84-37-37-65-78-86-127-20-49-31-100-31-154 0-55 11-108 31-157 21-47 49-90 86-125 35-37 78-64 127-86 47-21 99-31 154-31z m0 498c-12 0-21-4-29-14-10-7-14-17-14-29 0-6 6-12 16-15 9-4 21-10 37-16 17-6 37-14 58-25 22-12 32-32 32-57 0-24-8-43-22-61-13-17-29-29-49-35v-33c0-8-4-14-9-20-6-5-12-7-20-7s-14 2-19 7c-6 6-10 12-10 20v33c-20 6-35 18-49 35-14 18-22 37-22 61 0 8 4 14 8 19 6 6 14 8 22 8s13-2 19-8c6-5 8-11 8-19 0-12 4-24 14-31 8-8 17-12 29-12s22 4 29 12c10 7 14 19 14 31 0 6-6 10-16 16-9 3-21 7-37 13-17 6-37 16-58 28-22 11-32 29-32 56 0 22 8 43 22 61 14 15 29 27 49 33v33c0 8 4 16 10 22 5 4 11 7 19 7s14-3 20-7c5-6 9-14 9-22v-33c20-6 36-18 49-33 14-18 22-39 22-61 0-8-4-13-8-19-6-6-14-10-22-10-7 0-13 4-19 10s-8 11-8 19c0 12-4 22-14 29-7 10-17 14-29 14z" horiz-adv-x="1000" />

<glyph glyph-name="shipping" unicode="&#xe87d;" d="M951 450c8 0 16-4 20-10 6-6 10-12 10-20v-170c0-23-8-45-26-60-15-18-37-26-60-26h-47c-6-23-20-45-39-60-20-16-43-26-71-26-27 0-48 10-70 26-20 15-33 37-39 60h-207c-6-23-20-45-39-60-20-16-43-26-70-26-28 0-51 10-71 26-19 15-33 37-39 60h-156c-8 0-14 4-20 8-5 6-7 14-7 22 0 7 2 13 7 19 6 6 12 8 20 8h156c6 25 20 45 39 61 20 17 43 25 71 25 27 0 50-8 70-25 19-16 33-36 39-61h207c6 25 19 45 39 61 22 17 43 25 70 25 28 0 51-8 71-25 19-16 33-36 39-61h47c7 0 13 4 19 10 6 4 10 11 10 19v141h-342c-8 0-14 4-19 10-6 6-8 11-8 19v227c0 8-4 15-10 21s-12 8-20 8h-283c-8 0-15 2-21 8s-8 14-8 19c0 8 2 16 8 22s13 8 21 8h283c24 0 43-8 61-26 16-15 25-35 25-60v-14h127c4 0 8 0 12-2s8-4 10-8l148-173z m-340 0h223l-109 126h-114z m-298-313c15 0 29 4 41 16 9 11 15 25 15 41 0 15-6 29-15 39-12 11-26 17-41 17-16 0-30-6-41-17-10-10-16-24-16-39 0-16 6-30 16-41 11-12 25-16 41-16z m425 0c16 0 30 4 41 16 10 11 16 25 16 41 0 15-6 29-16 39-11 11-25 17-41 17-15 0-29-6-39-17-11-10-17-24-17-39 0-16 6-30 17-41 10-12 24-16 39-16z m-539 426c-8 0-15 2-19 8-6 5-10 11-10 19s4 16 10 22c4 4 11 7 19 7h125c8 0 16-3 22-7 4-6 8-14 8-22s-4-14-8-19c-6-6-14-8-22-8z m-56-113c-8 0-16 1-22 7-4 6-8 12-8 20s4 14 8 19c6 6 14 10 22 10h125c7 0 15-4 19-10 6-5 10-11 10-19s-4-14-10-20c-4-6-12-7-19-7z m111-86c0-8-2-14-8-20s-14-10-21-10h-125c-8 0-14 4-20 10s-10 12-10 20c0 7 4 13 10 19s12 8 20 8h125c7 0 15-2 21-8s8-12 8-19z" horiz-adv-x="1000" />

<glyph glyph-name="support" unicode="&#xe87e;" d="M947 434c6-6 8-14 8-22 0-7-2-13-8-19l-70-76c-2 0-2 0-4-2l-2-2c-6-2-12-4-19-4-6 2-12 4-16 8l-72 76c-4 6-8 12-8 19 0 8 4 16 8 22 6 6 13 8 21 8s14-2 20-8l21-27c0 50-10 97-29 140-18 43-45 82-76 115-33 34-73 59-115 79-45 17-92 27-141 27-51 0-98-10-141-27-45-20-84-45-115-79-33-33-59-72-78-115-20-45-29-92-29-140 0-51 9-98 29-141 19-45 45-84 78-115 31-34 70-59 115-78 43-20 90-30 141-30 31 0 62 4 92 12 29 8 58 20 84 33 27 16 50 33 74 55 21 21 41 45 58 72 4 6 10 10 18 12s14 2 22-2c5-6 9-12 11-20 2-5 0-13-4-19-19-31-41-59-66-84-27-24-55-45-86-63-29-17-62-29-98-39-33-8-68-13-105-13-59 0-113 11-164 33-51 21-94 53-133 90-37 37-68 82-90 132-21 51-33 106-33 165 0 56 12 111 33 162 22 50 53 95 90 134 39 38 82 67 133 88 51 24 105 34 164 34 58 0 111-10 162-34 51-21 96-50 133-88 39-39 68-84 92-134 21-51 31-106 31-162h2l21 27c6 6 14 8 22 8s13-2 19-8z m-593-10c3 4 5 8 7 10s2 6 4 8c0 2 2 4 2 8 0 1 0 3 0 7 0 2 0 6 0 8-2 2-4 4-6 6s-4 4-7 4c-2 2-6 2-10 2s-8 0-12-2c-4 0-8-2-12-6-4 0-7-4-11-6-4-4-10-8-14-12l-37 41c6 6 12 12 17 16 6 4 10 6 14 10 6 2 10 4 14 6 6 2 10 4 15 4 4 2 10 4 16 4s12 0 18 0c7 0 15 0 21-2 8-2 16-4 22-6 5-2 11-6 15-10 6-4 10-8 12-14 4-6 8-11 8-15 2-6 2-12 2-20 0-4 0-10 0-14 0-3-2-7-2-11-2-6-4-10-6-14s-4-8-6-12c-2-4-4-5-8-11-4-4-8-8-12-12-3-6-9-12-19-20-8-7-20-17-33-29v-2h92v-55h-176v43l58 61c8 8 16 16 22 21 6 6 10 12 12 14z m279-139h-65v47h-97v49l101 147h61v-147h27v-49h-27z m-104 96h39v29c0 2 0 6 0 10 0 2 0 8 0 12s2 8 2 10c0 2 0 4 0 4h-2c-2-4-3-8-5-12s-6-8-8-12z" horiz-adv-x="1000" />

<glyph glyph-name="bag-2" unicode="&#xe87f;" d="M826 621l57-568c0-23-8-43-24-61-17-15-37-25-60-25h-598c-23 0-43 10-60 25-16 18-24 38-24 61l57 568c0 24 8 43 23 61 18 16 37 25 61 25h86v14c0 43 15 80 45 109 31 32 68 47 111 47s80-15 111-47c30-29 45-66 45-109v-14h86c24 0 43-9 61-25 15-18 23-37 23-61z m-439 100v-14h226v14c0 31-11 59-33 80-21 22-49 33-80 33s-59-11-80-33c-23-21-33-49-33-80z m412-695c8 0 14 2 19 8 6 5 8 11 8 19l-56 568c0 8-2 14-8 20s-12 10-20 10h-86v-45c8-4 16-10 20-18 6-8 10-17 10-27 0-14-6-26-16-35-10-10-22-14-35-14-14 0-26 4-35 14-10 9-14 21-14 35 0 10 2 19 8 27 4 8 12 14 19 18v45h-226v-45c8-4 15-10 19-18 6-8 8-17 8-27 0-14-4-26-14-35-9-10-21-14-35-14-13 0-25 4-35 14-10 9-15 21-15 35 0 10 3 19 9 27 4 8 12 14 20 18v45h-86c-8 0-14-4-20-10s-7-12-7-20l-57-568c0-8 2-14 8-19 6-6 11-8 19-8z" horiz-adv-x="1000" />

<glyph glyph-name="grid" unicode="&#xe880;" d="M55 852h207v-207h-207z m0-342h207v-207h-207z m0-342h207v-207h-207z m342 684h207v-207h-207z m0-342h207v-207h-207z m0-342h207v-207h-207z m341 684h207v-207h-207z m0-342h207v-207h-207z m0-342h207v-207h-207z" horiz-adv-x="1000" />

<glyph glyph-name="bag-3" unicode="&#xe881;" d="M844 689h-187v60c0 52-42 94-94 94h-124c-52 0-94-42-94-94v-60h-189c-34 0-62-28-62-62v-719c0-35 28-63 62-63h688c34 0 62 28 62 63v719c0 34-28 62-62 62v0z m-437 60c0 17 14 31 32 31h124c18 0 32-14 32-31v-60h-188v60z m437-841h-688v719h189v-65s-1-31 31-31c35 0 31 31 31 31v65h188v-65s-2-31 31-31c31 0 31 31 31 31v65h187v-719z" horiz-adv-x="1000" />

<glyph glyph-name="direction" unicode="&#xe882;" d="M944 553l-175 187c-6 7-14 10-22 10h-261l-1 65c0 16-14 29-32 29s-29-13-29-29l-1-65h-344c-18 0-32-14-32-31v-375c0-17 14-31 32-31h344v-440c0-16 14-29 31-29s31 13 31 29v440h262c8 0 16 3 22 10l175 187c11 12 11 31 0 43z m-211-178h-623v313h623l146-156z" horiz-adv-x="1000" />

<glyph glyph-name="home" unicode="&#xe883;" d="M993 343l-469 491c-6 6-14 10-23 10-8 0-16-4-22-10l-472-491c-12-13-11-32 1-44 13-12 32-12 44 0l42 44v-467c0-18 14-32 32-32h218c17 0 31 14 31 31l1 313h249v-312c0-18 14-32 31-32h219c17 0 31 14 31 32v467l42-44c6-6 14-9 22-9s16 3 22 9c12 11 13 31 1 44z m-150 57v-493h-155v312c0 17-14 31-32 31h-311c-17 0-31-14-31-31l-1-312h-156v493c0 2-1 5-1 7l345 360 343-359c0-3-1-5-1-8z" horiz-adv-x="1000" />

<glyph glyph-name="magnifier" unicode="&#xe884;" d="M991-102l-304 305c57 68 91 155 91 250 0 216-175 391-391 391s-390-175-390-391 175-390 390-390c98 0 188 36 256 96l304-306c12-12 32-12 44 0 12 13 12 32 0 45z m-604 227c-181 0-328 147-328 328s147 329 328 329c182 0 329-147 329-329s-147-328-329-328z" horiz-adv-x="1000" />

<glyph glyph-name="magnifier-add" unicode="&#xe885;" d="M991-102l-277 278c60 71 95 162 95 261 0 225-181 407-406 407s-406-182-406-407 182-407 406-407c103 0 196 39 268 101l276-278c12-12 32-12 44 0 12 13 12 32 0 45z m-588 196c-189 0-344 155-344 344s155 344 344 344c189 0 344-155 344-344s-155-344-344-344z m156 375h-125v125c0 17-14 31-31 31s-31-14-31-31v-125h-125c-18 0-32-14-32-31s14-31 32-31h125v-125c0-18 14-32 31-32s31 14 31 32v125h125c17 0 31 14 31 31s-14 31-31 31z" horiz-adv-x="1000" />

<glyph glyph-name="magnifier-remove" unicode="&#xe886;" d="M991-102l-277 278c60 71 95 162 95 261 0 225-181 407-406 407s-406-182-406-407 182-407 406-407c103 0 196 39 268 101l276-278c12-12 32-12 44 0 12 13 12 32 0 45z m-588 196c-189 0-344 155-344 344s155 344 344 344c189 0 344-155 344-344s-155-344-344-344z m156 375h-312c-18 0-32-14-32-31s14-31 32-31h312c17 0 31 14 31 31s-14 31-31 31z" horiz-adv-x="1000" />

<glyph glyph-name="phone-1" unicode="&#xe887;" d="M256 808c37-50 80-116 131-195 12-21 10-47-6-78-6-12-22-41-47-87 27-39 70-87 126-143s105-99 142-127c46 26 75 43 87 49 17 9 33 13 48 13 11 0 21-2 30-7 58-36 123-79 197-131 13-10 21-24 23-41 2-18-3-37-16-57-6-9-16-22-30-39s-35-39-63-64-50-39-68-39h-2c-133 5-298 105-492 300-195 195-295 359-300 493 0 17 13 40 39 69 25 28 47 49 63 61 16 13 30 23 41 31 14 10 30 15 48 15 21 0 38-8 49-23z m-62-40c-27-19-52-40-75-63-23-24-37-41-41-52 5-118 99-267 281-449 182-181 332-275 449-282 10 4 27 18 50 42s45 49 64 76c3 5 5 9 3 13-75 53-138 95-189 127-5 0-11-2-19-6-11-6-39-22-85-47l-32-19-32 21c-42 29-92 74-152 134-59 59-103 110-132 152l-23 30 19 34c25 45 41 74 47 85 4 8 6 14 6 19-45 72-86 135-124 189h-2c-5 0-10-1-13-4z" horiz-adv-x="1000" />

<glyph glyph-name="clock-1" unicode="&#xe888;" d="M500 844c-276 0-500-224-500-500s224-500 500-500c276 0 500 224 500 500s-224 500-500 500z m0-939c-241 0-437 198-437 439s196 438 437 438 438-197 438-438-197-439-438-439z m31 452v300c0 17-14 31-31 31s-31-14-31-31v-313c0-9 4-17 9-22 1-1 1-2 2-2l155-155c12-12 32-12 44 0s12 32 0 44z" horiz-adv-x="1000" />

<glyph glyph-name="heart" unicode="&#xe889;" d="M0 470q0 122 88 210 84 84 204 86t208-78q88 80 208 78t204-86q88-88 88-210t-88-210q-4-4-346-342-27-27-66-27t-66 27q-2 0-346 342-88 88-88 210z m63 0q0-97 70-165l346-342q21-23 43 0l345 342q70 68 70 165t-70 165q-66 66-160 68t-164-60l-43-39-43 39q-70 62-164 60t-160-68q-70-68-70-165z m93 7q0 55 39 94t94 39q16 0 16-16t-16-16q-41 0-71-29t-30-72q0-16-16-16t-16 16z" horiz-adv-x="1000" />

<glyph glyph-name="heart-1" unicode="&#xe88a;" d="M500-85q-14 0-25 10l-348 336q-5 5-15 15t-31 37-38 54-30 67-13 77q0 123 71 192t196 70q34 0 70-12t67-33 54-38 42-38q20 20 42 38t54 38 67 33 70 12q125 0 196-70t71-192q0-123-128-251l-347-335q-10-10-25-10z" horiz-adv-x="1000" />

<glyph glyph-name="earphones-alt" unicode="&#xe88b;" d="M1000 285c0 20-3 98-6 120-28 255-235 440-491 440-267 0-483-206-498-479 0-6-2-48-3-73v-14c-1-6-2-12-2-18v-210c0-45 37-83 83-83h84c46 0 84 38 84 83v210c0 46-38 83-84 83h-84c-6 0-11-1-17-2 1 11 1 19 1 21 13 239 203 419 436 419 224 0 404-161 429-384 1-9 3-33 4-56-6 1-13 2-19 2h-83c-46 0-83-37-83-83v-209c0-31 18-59 44-73l-201-78v5c0 17-14 31-31 31h-94c-17 0-31-14-31-31v-31c0-18 14-32 31-32h94c0 0 0 0 1 0l56 1 321 126c5 2 8 4 11 7 28 14 48 42 48 75v209c0 5-1 10-2 15 1 3 2 6 2 9z m-917-3h84c12 0 21-10 21-21v-210c0-11-9-20-21-20h-84c-11 0-20 9-20 20v210c0 11 9 21 20 21z m730-21c0 11 9 21 21 21h83c11 0 20-10 20-21v-209c0-11-9-20-20-20h-83c-12 0-21 9-21 20v209z" horiz-adv-x="1000" />

<glyph glyph-name="credit-card" unicode="&#xe88c;" d="M906 672h-812c-52 0-94-42-94-94v-468c0-52 42-94 94-94h812c52 0 94 42 94 94v468c0 52-42 94-94 94z m-812-62h812c18 0 32-14 32-32v-62h-876v62c0 18 14 32 32 32z m812-532h-812c-18 0-32 14-32 32v281h876v-281c0-18-14-32-32-32z" horiz-adv-x="1000" />

<glyph glyph-name="action-undo" unicode="&#xe88d;" d="M967-76c0 0-1 0-1 0-16 0-26 13-27 28-1 12-33 292-471 292v-179c0-12-7-23-18-28-11-6-24-4-33 4l-406 335c-7 6-11 15-11 25 0 9 4 18 12 24l405 332c9 8 22 9 33 4s18-16 18-28v-175c181-6 323-65 414-171 149-174 115-426 114-437-2-15-14-26-29-26z m-530 383v0c312 0 432-106 500-199-10 75-39 165-103 238-84 98-220 150-397 150-18 0-32 14-32 31v140l-324-267 324-269v145c0 8 4 16 9 22 6 6 14 9 23 9z" horiz-adv-x="1000" />

<glyph glyph-name="envolope" unicode="&#xe88e;" d="M1000 617c0 6 0 13-3 18-8 35-33 53-75 53h-813c-37 0-77-14-97-41-1-1-3-2-4-4-7-7-9-17-7-26-1-2-1-5-1-7v-500c0-52 58-110 109-110h813c52 0 78 58 78 110v500c0 2 0 5 0 7z m-891 8h813l-422-336-421 335c10 2 22 1 30 1z m813-562h-813c-17 0-46 29-46 47v447l417-333c5-5 13-8 20-8s15 3 21 8l417 333v-447c0-18 1-47-16-47z" horiz-adv-x="1000" />

<glyph glyph-name="chart" unicode="&#xe88f;" d="M266 532h-219c-17 0-31-14-31-32v-625c0-17 14-31 31-31h219c17 0 31 14 31 31v625c0 18-14 32-31 32z m-32-626h-156v563h156v-563z m375 440h-219c-17 0-31-14-31-31v-440c0-17 14-31 31-31h219c17 0 31 14 31 31v440c0 17-14 31-31 31z m-31-440h-156v377h156v-377z m375 938h-218c-18 0-32-14-32-31v-938c0-17 14-31 32-31h218c17 0 31 14 31 31v938c0 17-14 31-31 31z m-31-938h-156v876h156v-876z" horiz-adv-x="1000" />

<glyph glyph-name="shopping-cart" unicode="&#xe8ba;" d="M696 599c-7 56-32 109-73 149-47 47-109 72-175 72h-4c-66 0-128-25-175-72-41-40-66-93-72-149h-167v-554c0-91 74-165 165-165h502c91 0 166 74 166 165v554h-167z m-252 169h4c99 0 181-74 195-169h-394c14 95 96 169 195 169z m366-723c0-62-50-113-113-113h-502c-62 0-113 51-113 113v502h117v-102c0-12 10-22 22-22h2c12 0 22 10 22 22v102h402v-102c0-12 10-22 22-22h2c12 0 22 10 22 22v102h117v-502z" horiz-adv-x="892" />

<glyph glyph-name="phone-2" unicode="&#xe8bb;" d="M204 185c98-118 217-211 353-276 51-25 120-54 197-59 5 0 9 0 14 0 52 0 93 18 127 54 0 1 1 1 1 1 12 15 26 28 40 42 10 9 20 19 29 29 44 46 44 104 0 149l-125 125c-21 22-46 33-73 33-26 0-52-11-74-33l-74-74c-7 4-14 7-20 10-9 4-16 8-23 13-68 43-129 99-188 171-29 37-49 69-63 101 20 17 38 36 55 54 7 6 13 13 19 19 23 22 35 48 35 75s-12 52-35 74l-61 62c-8 7-14 14-21 21-14 15-28 29-43 42-21 21-46 32-72 32-27 0-52-11-74-32l-78-78c-28-28-44-62-47-102-4-49 5-102 29-165 36-99 91-190 172-288z m-151 449c3 28 13 51 33 71l77 77c12 11 26 17 39 17 12 0 25-6 37-18 14-13 27-26 41-40 7-8 14-15 21-22l62-62c13-13 20-26 20-39s-7-26-20-39c-6-6-13-13-19-19-19-20-37-38-57-56-1 0-1 0-1-1-18-17-15-33-11-46 1 0 1-1 1-1 16-39 38-75 73-119 62-76 127-136 199-182 9-5 19-10 28-14 8-5 16-9 23-13 0 0 1-1 2-1 7-4 13-5 20-5 17 0 27 10 31 14l77 77c12 12 25 19 38 19 16 0 29-10 37-19l125-124c25-25 25-52-1-79-8-9-18-18-27-27-15-14-30-29-44-45-23-26-52-38-89-38-3 0-7 0-10 1-68 4-131 30-179 53-129 62-242 151-336 263-77 93-129 180-164 273-21 57-29 102-26 144z" horiz-adv-x="1000" />

<glyph glyph-name="category-home" unicode="&#xe900;" d="M220-117c-21 6-43 23-53 42-11 20-10 10-10 246v215l-28-28c-18-17-30-28-33-28-7-2-22 0-27 3-6 5-12 17-12 25 0 4 1 9 3 13 4 9 419 429 428 433 3 2 9 3 12 3s9-1 13-3c9-4 423-424 427-433 2-4 3-9 3-13 0-8-5-20-12-25-5-3-19-5-27-3-3 0-15 11-33 28l-28 28v-215c0-186 0-216-2-225-7-30-32-55-62-63-14-4-545-4-559 0z m137 232c0 147 0 178 2 183 3 6 10 13 17 16 6 2 242 2 249 0 6-3 13-10 16-16 2-5 2-36 2-183v-176h55c33 0 59 0 63 2 10 2 20 10 22 19 1 4 2 92 2 246l0 240-142 144c-77 78-142 143-143 143s-66-65-143-143l-142-144 0-240c0-154 1-242 2-246 2-8 12-17 20-19 4-1 33-2 64-2l56 0v176z m228-18v158h-170v-316h170v158z" horiz-adv-x="1000" />

<glyph glyph-name="category-motors" unicode="&#xe901;" d="M261 100c-29 7-57 32-68 59l-3 10-128 1-6 4c-3 2-7 7-9 10-4 6-4 8-4 117v111l4 5c2 3 7 8 10 10 5 3 7 3 37 3h32l39 73c22 40 41 75 43 78 9 10 0 10 202 9l184 0 7-5c5-3 20-24 60-79l53-75 59-1c64 0 74-1 95-9 34-14 66-46 79-80 9-23 10-30 10-93 0-55 0-58-4-64-2-3-6-8-9-10l-6-4-128-1-3-10c-11-28-39-52-69-59-22-6-49-3-69 7-20 10-42 34-48 54l-3 8h-236l-3-8c-9-28-39-54-69-61-13-3-36-3-49 0z m42 60c15 7 24 22 24 39 0 24-18 42-41 42-29 0-49-29-39-56 2-9 14-21 22-25 9-4 25-4 34 0z m428 0c8 4 20 16 23 25 9 27-11 56-40 56-23 0-41-18-41-42 0-17 9-32 25-39 8-4 24-4 33 0z m-538 77c6 19 28 44 47 53 17 9 30 11 51 10s34-5 49-14c17-12 33-31 39-49l3-8h236l3 8c6 18 22 37 40 49 15 9 27 13 48 14s34-1 51-10c19-9 41-34 48-53l2-8h88v34c0 48-3 60-23 81-10 11-20 18-35 23l-11 4-727 1v-143h88l3 8z m192 243v50h-139l-25-49c-13-27-24-49-24-50s42-1 94-1h94v50z m220 0l-33 50h-129v-100h195l-33 50z" horiz-adv-x="1000" />

<glyph glyph-name="category-music" unicode="&#xe902;" d="M331-117c-7 3-13 11-16 18-4 12 1 26 12 34 4 3 7 3 74 3l69 1v116l-14 2c-104 15-192 80-239 177-17 34-26 68-30 106-1 10-2 42-2 71 0 49 0 54 3 60 6 12 15 18 27 18 8 0 19-6 24-12 4-6 4-7 5-69 1-67 2-78 10-108 16-54 52-105 99-139 17-12 52-30 71-36 45-15 107-15 152 0 20 6 54 24 72 36 46 34 82 85 98 139 8 30 9 41 11 108 1 62 1 63 4 69 5 6 16 12 25 12 12 0 21-6 26-18 3-6 3-11 3-60 0-29-1-61-2-71-4-38-13-72-30-106-46-97-134-162-239-177l-14-2v-116l70-1c66 0 69 0 74-3 14-12 17-31 5-45-9-10 0-10-179-10-133 1-165 1-169 3z m145 288c-87 10-158 78-173 165-4 22-4 282 0 304 11 63 51 117 108 146 15 8 37 15 54 18 16 3 54 3 70 0 40-7 77-27 106-56 23-23 39-48 49-79 10-30 10-31 10-181 0-151 0-151-10-182-30-90-119-146-214-135z m59 62c44 11 84 49 99 91 4 14 8 31 8 42v6h-32c-36 0-40 1-48 11-4 6-4 8-4 18s0 13 4 18c8 10 12 11 48 11h32v29h-32c-36 0-40 1-48 11-4 5-4 8-4 18s0 13 4 18c8 10 12 11 48 11h32v28h-32c-36 0-40 1-48 12-4 5-4 7-4 18 0 10 0 12 4 18 8 10 11 11 47 11h33l-1 13c-3 34-18 66-44 91-19 18-38 29-62 35-15 4-55 4-70 0-35-9-66-33-86-65-12-19-21-48-21-68v-6h33c36 0 39-1 47-11 4-6 5-8 5-18 0-11-1-13-5-18-8-11-12-12-48-12h-32v-28h32c36 0 40-1 48-11 4-5 5-8 5-18s-1-13-5-18c-8-10-12-11-48-11h-32v-29h32c36 0 40-1 48-11 4-5 5-7 5-18s-1-12-5-18c-8-10-12-11-48-11h-32v-6c0-20 9-49 21-68 22-35 55-58 94-67 14-3 47-2 62 2z" horiz-adv-x="1000" />

<glyph glyph-name="category-gifts" unicode="&#xe903;" d="M351 5c-8 2-15 10-18 19-1 3-1 63-1 156 0 83-1 150-1 150-1 0-11-3-22-7-32-11-63-17-149-30-53-8-59-8-68-1-8 5-10 12-20 55-16 68-19 88-19 138s3 71 19 138c5 23 11 45 12 47 3 6 11 12 19 14 9 2 122-15 172-26 27-6 46-13 99-36 41-18 46-20 49-18 6 5 19 12 34 17 15 5 16 5 44 5s29 0 44-5c15-5 28-12 34-17 2-2 7 0 49 18 53 23 72 30 99 36 50 11 162 28 172 26 8-2 15-8 19-14 1-2 7-24 12-47 16-67 18-87 18-138s-2-70-18-138c-10-43-13-50-20-55-9-7-15-7-68 1-86 13-117 19-149 30-11 4-21 7-22 7 0 0-1-69-1-153l-1-154-4-7c-8-11-23-16-35-11-3 1-33 25-67 52-34 28-62 50-62 50s-29-23-63-51c-70-56-71-57-87-51z m126 159l12 9h24l12-9c6-5 28-23 49-40l38-30v262l-15 7c-14 5-16 6-18 4-6-5-19-12-34-17-28-9-61-9-88 0-15 5-28 11-34 17-2 2-4 1-18-4l-15-7v-262l38 30c20 17 43 35 49 40z m-226 204c27 6 57 16 95 32 17 8 32 14 32 15 0 0-2 5-5 10-9 19-12 33-12 60s3 42 12 60c3 6 5 11 5 11 0 0-15 7-32 14-38 17-68 27-95 33-27 6-119 20-120 19-1-2-14-65-17-85-4-26-4-77 0-103 3-20 16-83 17-85 1-2 93 13 120 19z m627 14c11 53 13 67 13 103 0 23-1 39-3 52-3 20-16 83-17 85-1 1-79-11-112-17-30-6-64-18-103-35-17-7-32-14-32-14-1 0 2-5 4-11 10-18 13-32 13-60s-3-41-13-60c-2-5-5-10-4-10 0-1 15-7 32-15 38-16 68-26 96-32 27-6 117-21 118-19 1 0 5 15 8 33z m-342 27c30 15 47 43 47 76s-17 61-47 76l-13 7h-44l-13-7c-22-11-39-30-45-53-5-20-2-46 7-63 9-18 33-37 51-41 4-1 15-2 26-1 17 0 19 0 31 6z" horiz-adv-x="1000" />

<glyph glyph-name="category-electronics" unicode="&#xe904;" d="M237-65c-17 8-60 49-83 78-57 71-89 149-99 241-3 24-1 94 2 117 4 24 15 65 22 85 9 24 28 64 42 85 46 74 108 131 187 169 31 16 52 24 81 31 75 19 149 19 224 0 29-7 50-15 81-31 78-38 141-95 187-169 13-21 33-61 42-85 7-20 18-61 21-85 4-23 6-93 3-117-10-92-42-170-99-241-24-29-67-70-83-78-5-3-17-3-264-3s-259 0-264 3z m521 68c55 49 98 118 118 190 32 113 13 231-51 329-73 109-196 175-324 175-102 0-202-42-275-116-92-92-133-226-109-352 17-88 62-169 127-226l15-13h484l15 13z m-283 46c-16 4-27 10-41 23-13 13-22 28-28 44-5 17-5 42 0 59 8 26 28 48 52 60l14 6 0 121 1 120 5 6c13 17 33 17 46 0l5-6 1-120 0-121 14-6c34-16 55-50 55-89 0-31-7-49-29-71-8-7-18-16-23-18-20-11-48-14-72-8z m46 61c14 8 22 22 20 39-2 31-37 48-62 31-12-8-18-19-19-33 0-9 0-12 5-20 11-22 36-29 56-17z m-369 166c-20 10-20 41 0 51 7 3 10 3 41 3 36 0 40 0 48-8 12-11 12-30 0-42-8-7-12-8-48-8-31 0-34 0-41 4z m617-2c-19 9-23 34-8 48 8 8 12 8 48 8 30 0 34 0 41-3 20-10 20-41 0-51-7-4-10-4-42-4-24 0-35 1-39 2z m-479 202c-7 3-51 48-54 54 0 2-1 7-1 12 0 11 4 18 13 25 7 4 21 5 28 1 7-3 52-49 54-55 2-6 2-19-1-24-8-15-24-21-39-13z m398-2c-5 2-13 9-16 15-2 5-3 18 0 24 2 6 47 52 53 55 3 1 9 2 14 2 10 0 18-4 24-13 3-5 4-7 3-17l0-11-22-23c-12-13-25-25-29-28-7-5-19-7-27-4z m-199 84c-4 2-8 6-11 10l-5 6v78l5 6c13 17 33 17 46 0l5-6v-78l-5-6c-6-8-14-13-23-13-4 0-9 2-12 3z" horiz-adv-x="1000" />

<glyph glyph-name="category-fashion" unicode="&#xe905;" d="M192-106c-7 5-14 17-14 25 0 3 32 113 70 245l70 240-8 108c-5 60-9 109-9 110s-18-2-39-5c-24-3-42-4-45-3-9 1-17 8-21 15-4 9-18 123-16 132s8 17 15 20c4 1 29 5 59 9 53 7 55 7 106 7 58 0 58 0 66-11 4-4 5-8 6-20 2-16 6-28 14-39 12-16 35-28 55-28s43 12 55 28c8 11 12 23 14 39 1 12 2 16 6 20 8 11 8 11 66 11 51 0 53 0 106-7 30-4 55-8 58-9 8-3 13-11 15-20s-11-123-15-132c-4-7-13-14-21-15-4-1-21 0-45 3-21 3-39 5-39 5s-4-50-9-110l-8-108 69-238c75-257 74-253 66-263-2-3-6-7-9-9l-5-4h-608l-5 4z m563 55c0 1-114 397-121 418-1 3-9 3-133 3h-132l-3-8c-97-335-119-412-119-413 0-1 110-2 254-2 145 0 254 1 254 2z m-119 596c10 123 10 125 19 133 10 8 14 8 58 2 22-3 41-5 41-4 0 0 2 12 4 26l3 27-5 1c-34 5-72 9-100 9h-32l-3-10c-11-34-40-66-73-80-29-11-66-11-94 0-33 14-62 46-73 80l-3 10h-32c-28 0-66-4-100-9l-5-1 3-27c2-14 3-26 4-26 0-1 18 1 41 4 44 6 48 6 58-2 9-8 9-10 18-133l9-116h254l8 116z" horiz-adv-x="1000" />

<glyph glyph-name="category-hot-deals" unicode="&#xe906;" d="M922 354l-24 206c93 67 132 181 76 237-24 23-61 31-102 21-36-9-74-32-105-63-1 0-1-1-1-1l-276 32-490-490 432-432z m-36 407c21 5 38 3 47-6 21-22 2-82-43-125l-7 58-48 48c17 12 35 21 51 25z m-374-37l212-24c-9-16-15-32-19-48l-21 20-42-41 125-125 41 42-41 41c-9 9-11 26-6 47 5 18 15 38 29 56l8-1 29-30 33-286-428-428-349 349z m-188-314c-49 0-88-39-88-88 0-48 39-88 88-88 48 0 88 40 88 88 0 49-40 88-88 88z m0-117c-16 0-30 13-30 29 0 16 14 29 30 29s29-13 29-29c0-16-13-29-29-29z m293-59c48 0 88 40 88 88 0 49-40 88-88 88s-88-39-88-88c0-48 39-88 88-88z m0 117c16 0 29-13 29-29 0-16-13-29-29-29s-29 13-29 29c0 16 13 29 29 29z m-146 152l58-10-59-352-58 10z" horiz-adv-x="1000" />

<glyph glyph-name="tag-percent" unicode="&#xe907;" d="M991 835c-11 12-30 12-41 0l-85-85c-6 2-11 4-17 6l-265 65c-30 8-62-1-84-23l-473-473c-35-34-35-90 0-124l331-332c34-34 90-34 125 0l472 474c22 22 31 54 24 84l-66 265c-1 6-3 11-6 16l85 86c12 11 12 30 0 41z m-70-422c2-10-1-21-8-28l-473-474c-11-12-30-12-41 0l-332 331c-11 12-11 30 0 42l474 473c5 5 13 8 21 8 2 0 4 0 7 0l249-62-71-71c-32 16-73 10-100-17-34-34-34-90 0-124 17-17 40-26 62-26 23 0 45 9 63 26 27 27 32 67 17 100l70 71 62-249z m-191 119c-11-11-30-11-41 0-12 12-12 30 0 42 5 6 13 8 20 8 8 0 15-2 21-8l0 0c12-12 12-30 0-42z m-248-41c-35 34-91 34-125 0-34-34-34-90 0-124 34-35 90-35 125 0 34 34 34 90 0 124z m-42-83c-11-11-30-11-41 0s-12 30 0 42c11 11 30 11 41 0 12-12 12-30 0-42z m83-207c-34 34-90 34-124 0-35-34-35-90 0-124 34-35 90-35 124 0 34 34 34 90 0 124z m-41-83c-12-11-30-11-42 0-11 12-11 30 0 42 12 11 30 11 42 0 11-12 11-30 0-42z m174 190c-2 16-17 27-33 26l-373-42c-16-2-27-16-25-32 1-15 14-26 29-26 1 0 2 0 3 0l373 41c16 2 27 17 26 33z" horiz-adv-x="1000" />

<glyph glyph-name="console" unicode="&#xe908;" d="M1000 218c-3 57-13 121-28 181-15 57-34 110-56 152-87 153-182 129-295 99-36-9-75-19-115-22h-12c-40 3-79 13-115 22-113 29-208 54-295-101-22-41-42-94-56-152-15-59-25-123-27-180-3-64 3-110 17-142 14-30 34-49 60-56 23-7 51-4 80 8 48 20 104 63 159 114 39 37 111 56 183 56s145-19 183-56c55-51 111-94 160-114 28-11 56-15 79-8 25 7 46 25 60 57 14 31 20 77 18 142z m-60-125c-8-17-18-27-30-31-14-3-31-1-51 7-44 17-95 56-145 103-47 47-130 71-214 71s-167-24-215-69c-51-47-103-87-145-103-20-7-37-11-51-6-12 4-22 13-30 31-10 24-15 62-12 119 2 54 11 115 26 172 14 54 31 104 52 141 69 123 148 103 243 79 39-10 78-20 122-24 1 0 1 0 3 0h13c2 0 2 0 3 0 45 4 84 14 123 24 95 23 174 44 243-79 21-37 39-86 52-141 14-57 24-117 26-172 3-57-2-95-13-122z m-555 368c-12 11-27 20-44 21-2 16-9 32-20 44l-2 1c-13 14-31 21-51 21s-38-9-51-21c-11-11-20-28-21-45-17-1-32-9-45-20l-1-1c-14-14-21-31-21-51s9-39 21-51c13-13 27-20 46-21 1-18 9-34 21-45 14-14 31-21 51-21s39 8 51 21c12 12 20 27 22 45 17 1 33 8 44 21 14 13 22 31 22 51s-9 38-22 51z m-31-70c-5-5-11-7-18-7h-18c-12 0-23-10-23-24v-16c0-8-3-14-8-19s-11-7-19-7c-7 0-13 2-18 7s-8 11-8 19v17c0 13-10 24-23 24h-18c-7 0-14 2-19 7-3 4-7 10-7 18s2 13 7 18c0 0 0 0 2 2 5 3 11 6 17 6h18c12 0 23 10 23 24v17c0 8 3 14 8 19s11 7 18 7c8 0 14-2 19-7 0 0 0 0 1-2 4-4 7-11 7-17v-17c0-13 9-24 23-24h18c7 0 13-3 18-8s8-11 8-18c0-8-3-14-8-19z m406 107c0-24-19-43-43-43s-44 19-44 43c0 24 20 44 44 44s43-20 43-44z m0-177c0-24-19-43-43-43s-44 19-44 43c0 24 20 44 44 44s43-20 43-44z m-88 89c0-24-20-44-44-44s-43 20-43 44c0 24 19 43 43 43s44-19 44-43z m177 0c0-24-20-44-44-44s-43 20-43 44c0 24 19 43 43 43s44-19 44-43z" horiz-adv-x="1000" />

<glyph glyph-name="category-furniture" unicode="&#xe909;" d="M315-113c-13 7-13 9-13 63 1 43 1 47 4 51 8 11 5 10 91 11l78 0v117l-254 1-11 5c-34 16-52 54-42 89 7 27 25 47 51 55 9 3 17 3 133 3h123v50h-55c-65 0-76 1-93 9-22 11-41 33-47 55-2 10-28 277-28 294 0 25 8 45 25 62 13 13 28 20 60 28 113 29 224 29 336-1 30-9 41-14 54-29 17-17 25-37 25-59 0-18-27-284-30-295-7-27-29-50-57-59-10-4-14-4-74-5l-64 0v-50h123c116 0 124 0 133-3 26-8 44-28 51-55 9-35-9-73-42-89l-11-5-254-1v-117l78 0c85-1 83 0 91-11 3-4 3-8 4-51 0-54 0-56-13-63-13-6-25-3-34 9-3 4-4 7-4 34l-1 29h-121l-1-29c0-32-1-34-12-42-6-5-20-5-27 0-11 8-11 10-12 42l0 29h-121l-1-29c0-27-1-30-4-34-9-12-21-15-34-9z m458 298c8 6 11 12 11 20s-3 15-11 21c-5 4-5 4-266 4-144 0-264 0-268 0-19-3-28-25-16-40 9-10-10-10 280-9 265 0 265 0 270 4z m-125 201c9 2 19 11 23 19 1 5 7 51 16 146 15 157 15 149 2 162-6 6-9 7-25 12-104 30-216 31-320 2-9-3-20-6-24-8-7-4-16-16-18-25-1-7 26-281 29-288 1-3 5-8 8-11 11-11 5-11 161-11 97 0 143 0 148 2z m-224 61c-5 2-14 9-16 15-1 4-18 176-18 187 0 8 5 16 12 21 5 3 7 4 16 3 9 0 11-1 15-5 3-3 6-8 7-11 3-9 19-185 17-191-1-8-9-17-17-19-7-2-9-2-16 0z m133 4c-5 2-8 5-11 10l-3 7 9 94c6 74 9 96 11 100 5 9 14 14 25 13 10-1 17-5 21-15 3-7 3-7-5-100-10-104-10-103-22-109-9-5-16-5-25 0z" horiz-adv-x="1000" />

<glyph glyph-name="category-garden" unicode="&#xe90a;" d="M488-117c-7 3-14 11-16 19-1 3-2 17-2 30v24l-39 39-38 39-8-4c-21-11-45-15-65-11-40 8-69 32-90 72-14 28-32 86-40 127-6 32-6 36-1 46 8 15 21 18 54 11 56-12 108-31 138-48 13-7 40-35 48-47 12-21 14-26 13-53 0-22 0-25-4-36l-5-13 37-37v319l-11 3c-45 13-83 50-97 96-6 21-7 37-6 134 0 99 0 99 10 124 9 22 26 44 46 60 12 10 36 22 51 26 26 6 56 5 82-3 41-13 78-52 92-95 6-20 7-41 6-136-1-76-1-91-4-100-7-29-20-51-41-71-20-19-37-29-66-37-1 0-2-25-2-117v-116l20 20 20 20-3 6c-6 11-10 31-10 45 0 40 23 80 59 101 32 19 98 41 154 51 18 4 25 3 34-4 6-5 11-15 11-23 0-14-16-81-28-114-15-43-26-64-47-84-24-23-44-32-72-34-20 0-31 2-46 8l-10 5-82-82v-68c0-41-1-69-2-73-2-8-9-16-16-19-7-3-18-3-24 0z m-133 199c25 13 36 39 25 60-14 28-37 43-95 60-31 9-32 9-32 6 0-4 12-42 18-61 11-31 23-49 39-61 15-10 29-12 45-4z m324 93c19 9 35 27 46 57 6 16 22 66 22 71 0 5-64-15-88-27-31-16-48-43-42-65 4-16 19-32 34-38 8-3 18-2 28 2z m-158 245c28 7 54 34 61 62 1 7 2 60 1 60-1 0-8-4-16-8-9-5-23-10-31-13-20-6-51-6-72-1-13 4-34 13-42 19-3 2-5 3-6 3s-1-12-1-27c0-32 2-42 13-59 20-31 57-46 93-36z m-12 158c3 1 8 5 11 8 8 10 9 23 1 34-6 7-12 10-25 12-11 2-17 5-22 14-3 6-4 9-3 17 0 12 3 17 12 24 11 7 39 4 59-7 12-7 27-22 33-35l5-9 2 7c2 10 2 30-1 40-9 36-45 64-81 64-39 0-76-29-83-66-3-13-2-38 3-49 4-13 17-30 27-38 20-15 47-22 62-16z" horiz-adv-x="1000" />

<glyph glyph-name="category-lanterns-lighting" unicode="&#xe90b;" d="M500 844c-208 0-375-167-375-375 0-46 8-88 21-125l104-209c13-16 25-33 42-41 0 0 0 0 0 0v-42c0-25 16-42 41-42v-41c0-25 17-42 42-42v-42c0-25 17-41 42-41h166c25 0 42 16 42 41v42c25 0 42 17 42 42v41c25 0 41 17 41 42v42c0 0 0 0 0 4 17 4 34 21 42 37l104 209c13 37 21 79 21 125 0 208-167 375-375 375z m83-959h-166v42h166v-42z m42 84h-250v41h250v-41z m42 83h-334v42h334v-42z m96 292l-84-167h-358l-83 167c-21 37-30 79-30 125 0 162 130 291 292 291s292-129 292-291c0-46-9-88-29-125z m-263 375v-42c117 0 208-92 208-208h42c0 137-112 250-250 250z" horiz-adv-x="1000" />

<glyph glyph-name="category-mechanics" unicode="&#xe90c;" d="M500 719c-192 0-350-142-371-329l84-9c16 142 141 254 287 254s271-112 288-258l83 8c-21 192-179 334-371 334z m0-459c0 0 0 0 0 0l-87 225-75-33 83-225c-29-21-46-54-46-92 0-70 54-125 125-125s125 55 125 125c0 71-54 125-125 125z m42-166h-84v83h84v-83z m-42 750c-275 0-500-225-500-500s225-500 500-500 500 225 500 500-225 500-500 500z m0-917c-229 0-417 188-417 417s188 416 417 416c229 0 417-187 417-416s-188-417-417-417z" horiz-adv-x="1000" />

<glyph glyph-name="category-motorcycles" unicode="&#xe90d;" d="M838 362c-29 0-56-7-79-21l-42 56c53 39 108 57 112 58 6 2 11 6 13 12 3 6 3 12 0 18-72 150-183 163-188 164-9 1-17-4-21-12-4-8-3-17 3-24 13-14 19-29 17-47-1-7-3-15-6-23-122 40-199-17-227-42-67 23-128 35-182 35-82 0-117-29-121-32-6-5-8-14-6-22 2-7 9-13 17-15 78-14 133-41 171-72l-49-59c-26 17-56 26-88 26-89 0-162-72-162-162 0-89 73-161 162-161 89 0 162 72 162 161 0 42-16 80-42 109l47 56c69-82 55-178 54-184-1-6 1-13 5-17 4-5 10-8 16-8h191c6 0 12 3 16 8 4 4 6 11 5 17-13 83 22 145 68 189l41-54c-30-30-49-70-49-116 0-89 73-161 162-161 89 0 162 72 162 161 0 90-73 162-162 162z m-214 144c-21-27-49-51-67-65-32 16-62 30-91 42 27 20 80 45 158 23z m-343-306c0-65-53-119-119-119-66 0-119 54-119 119 0 66 53 120 119 120 22 0 42-6 60-16l-76-90 32-27 76 89c17-20 27-47 27-76z m290-1h-144c1 62-16 226-222 293 10 1 21 2 33 2 57 0 157-17 311-97 7-3 15-3 22 2 4 3 115 79 124 162 1 10 1 20-1 29 29-15 67-45 99-103-63-27-233-114-222-288z m267-118c-66 0-119 54-119 119 0 32 12 60 32 81l70-93 34 25-70 94c16 8 34 13 53 13 66 0 119-54 119-120 0-65-53-119-119-119z" horiz-adv-x="1000" />

<glyph glyph-name="category-sound-video" unicode="&#xe90e;" d="M350 86h-148c-53 0-96 43-96 96v198c0 54 43 97 96 97h148c16 0 29-14 29-30v0-332c0-16-13-29-29-29v0z m-148 332c-21 0-38-17-38-37v-199c0-21 17-37 38-37h118v273z m374-459h-96c-88 0-160 72-160 160v325c0 88 72 159 160 159h96c16 0 30-13 30-29v0-586c0-16-14-29-30-29v0z m-96 586c-56 0-101-45-101-101v-325c0-56 45-101 101-101h67v527z m220-388c-16 0-29 13-29 29 0 8 3 16 9 21l0 0c19 19 30 45 30 74s-11 56-30 75v0c-6 5-9 12-9 20 0 16 13 30 29 30 9 0 16-4 21-9v0c30-30 48-70 48-116s-18-86-48-115l0 0c-5-6-12-9-21-9 0 0 0 0 0 0h0z m90-90c0 0 0 0 0 0-16 0-29 14-29 30 0 8 3 15 8 20v0c42 42 68 100 68 164s-26 122-68 164l0 0c-5 5-8 13-8 21 0 16 13 29 29 29 8 0 16-3 21-8v0c113-114 113-298 0-411-5-5-13-9-21-9 0 0 0 0 0 0h0z" horiz-adv-x="1000" />

</font>
</defs>
</svg>
